<svg xmlns="http://www.w3.org/2000/svg"><metadata><json>{ &quot;fontFamily&quot;: &quot;Linearicons-Free&quot;, &quot;majorVersion&quot;: 1, &quot;minorVersion&quot;: 0, &quot;description&quot;: &quot;Designed by Perxis (https://perxis.com).\nFont generated by IcoMoon.&quot;, &quot;copyright&quot;: &quot;Copyright © 2015 Perxis.com. All Rights Reserved.&quot;, &quot;designerURL&quot;: &quot;https://perxis.com&quot;, &quot;license&quot;: &quot;https://linearicons.com/free/license&quot;, &quot;fontURL&quot;: &quot;https://linearicons.com&quot;, &quot;licenseURL&quot;: &quot;https://linearicons.com/free/license&quot;, &quot;version&quot;: &quot;Version 1.0&quot;, &quot;fontId&quot;: &quot;Linearicons-Free&quot;, &quot;psName&quot;: &quot;Linearicons-Free&quot;, &quot;subFamily&quot;: &quot;Regular&quot;, &quot;fullName&quot;: &quot;Linearicons-Free&quot; }</json></metadata><defs><font id="Linearicons-Free" horiz-adv-x="1024"><font-face ascent="972.8" descent="-51.2" units-per-em="1024"/><glyph horiz-adv-x="409.6"/><glyph d="M1017.382 349.974l-452.050 499.634c-14.051 15.533-32.992 24.086-53.333 24.086-0.002 0 0 0 0 0-20.339 0-39.282-8.555-53.334-24.086l-452.050-499.634c-9.485-10.485-8.675-26.674 1.808-36.158 4.899-4.432 11.043-6.616 17.168-6.616 6.982 0 13.938 2.838 18.992 8.426l109.016 120.491v-410.517c0-42.347 34.453-76.8 76.8-76.8h563.2c42.347 0 76.8 34.453 76.8 76.8v410.517l109.018-120.493c9.485-10.483 25.674-11.296 36.158-1.808 10.483 9.485 11.293 25.675 1.806 36.158zM614.4 0h-204.8v230.4c0 14.115 11.485 25.6 25.6 25.6h153.6c14.115 0 25.6-11.485 25.6-25.6v-230.4zM819.2 25.6c0-14.115-11.485-25.6-25.6-25.6h-128v230.4c0 42.349-34.451 76.8-76.8 76.8h-153.6c-42.347 0-76.8-34.451-76.8-76.8v-230.4h-128c-14.115 0-25.6 11.485-25.6 25.6v467.106l291.832 322.552c4.222 4.667 9.68 7.237 15.368 7.237s11.146-2.57 15.366-7.235l291.834-322.552v-467.107z" data-tags="home, building, house" unicode=""/><glyph d="M716.8 665.6h51.2v-51.2h-51.2v51.2zM716.8 563.2h51.2v-51.2h-51.2v51.2zM716.8 460.8h51.2v-51.2h-51.2v51.2zM716.8 358.4h51.2v-51.2h-51.2v51.2zM716.8 153.6h51.2v-51.2h-51.2v51.2zM716.8 256h51.2v-51.2h-51.2v51.2zM307.2 665.6h51.2v-51.2h-51.2v51.2zM307.2 563.2h51.2v-51.2h-51.2v51.2zM307.2 460.8h51.2v-51.2h-51.2v51.2zM307.2 358.4h51.2v-51.2h-51.2v51.2zM307.2 153.6h51.2v-51.2h-51.2v51.2zM307.2 256h51.2v-51.2h-51.2v51.2zM204.8 665.6h51.2v-51.2h-51.2v51.2zM204.8 563.2h51.2v-51.2h-51.2v51.2zM204.8 460.8h51.2v-51.2h-51.2v51.2zM204.8 358.4h51.2v-51.2h-51.2v51.2zM204.8 153.6h51.2v-51.2h-51.2v51.2zM204.8 256h51.2v-51.2h-51.2v51.2zM409.6 665.6h51.2v-51.2h-51.2v51.2zM409.6 563.2h51.2v-51.2h-51.2v51.2zM409.6 460.8h51.2v-51.2h-51.2v51.2zM409.6 358.4h51.2v-51.2h-51.2v51.2zM409.6 153.6h51.2v-51.2h-51.2v51.2zM409.6 256h51.2v-51.2h-51.2v51.2zM947.2 0h-25.6v691.2c0 39.058-29.024 79.326-66.077 91.677l-241.123 80.374v83.949c0 8.093-3.827 15.709-10.318 20.539-6.493 4.829-14.888 6.306-22.637 3.981l-462.96-138.886c-37.73-11.32-67.285-51.043-67.285-90.434v-742.4h-25.6c-14.138 0-25.6-11.461-25.6-25.6s11.462-25.6 25.6-25.6h921.6c14.139 0 25.6 11.461 25.6 25.6s-11.461 25.6-25.6 25.6zM839.333 734.304c16.259-5.419 31.067-25.965 31.067-43.104v-691.2h-256v809.282l224.933-74.978zM102.4 742.4c0 16.827 14.678 36.557 30.797 41.392l430.003 129.002v-912.794h-460.8v742.4z" data-tags="apartment, building, city, business, work, office" unicode=""/><glyph d="M978.101 926.902c-28.77 28.768-67.018 44.611-107.701 44.611-40.685 0-78.933-15.843-107.701-44.611l-652.8-652.8c-2.645-2.645-4.678-5.837-5.957-9.354l-102.4-281.6c-3.4-9.347-1.077-19.818 5.957-26.85 4.885-4.888 11.43-7.499 18.104-7.499 2.933 0 5.891 0.502 8.744 1.541l281.6 102.4c3.515 1.28 6.709 3.312 9.354 5.958l652.8 652.8c28.768 28.768 44.613 67.018 44.613 107.702s-15.843 78.933-44.613 107.701zM293.114 98.917l-224.709-81.71 81.712 224.707 566.683 566.683 142.997-142.997-566.683-566.683zM941.899 747.702l-45.899-45.899-142.997 142.997 45.899 45.899c19.098 19.098 44.49 29.614 71.498 29.614s52.4-10.518 71.499-29.616c19.098-19.098 29.616-44.49 29.616-71.498s-10.52-52.4-29.616-71.498z" data-tags="pencil, write, edit" unicode=""/><glyph d="M588.8 614.4c-14.139 0-25.6 11.462-25.6 25.6 0 70.579-57.421 128-128 128-14.138 0-25.6 11.462-25.6 25.6s11.462 25.6 25.6 25.6c70.579 0 128 57.421 128 128 0 14.138 11.461 25.6 25.6 25.6s25.6-11.462 25.6-25.6c0-70.579 57.421-128 128-128 14.139 0 25.6-11.462 25.6-25.6s-11.461-25.6-25.6-25.6c-70.579 0-128-57.421-128-128 0-14.138-11.461-25.6-25.6-25.6zM527.426 793.6c25.11-15.136 46.238-36.264 61.374-61.376 15.136 25.112 36.264 46.24 61.376 61.376-25.112 15.136-46.24 36.264-61.376 61.376-15.136-25.112-36.264-46.24-61.374-61.376zM76.8 460.8c-14.138 0-25.6 11.462-25.6 25.6 0 14.115-11.485 25.6-25.6 25.6-14.138 0-25.6 11.462-25.6 25.6s11.462 25.6 25.6 25.6c14.115 0 25.6 11.485 25.6 25.6 0 14.138 11.462 25.6 25.6 25.6s25.6-11.462 25.6-25.6c0-14.115 11.485-25.6 25.6-25.6 14.138 0 25.6-11.462 25.6-25.6s-11.462-25.6-25.6-25.6c-14.115 0-25.6-11.485-25.6-25.6 0-14.138-11.462-25.6-25.6-25.6zM929.101 156.704l-541.995 541.994c-14.466 14.466-33.752 22.432-54.306 22.432s-39.84-7.966-54.306-22.432l-29.992-29.992c-14.466-14.466-22.432-33.752-22.432-54.306s7.966-39.84 22.432-54.306l541.994-541.992c14.464-14.466 33.75-22.434 54.304-22.434s39.84 7.965 54.306 22.434l29.994 29.992c14.466 14.464 22.432 33.752 22.432 54.304s-7.965 39.842-22.43 54.306zM284.706 632.502l29.992 29.992c4.795 4.795 11.224 7.435 18.102 7.435s13.307-2.64 18.102-7.435l73.691-73.693-66.197-66.197-73.691 73.691c-9.982 9.984-9.982 26.224 0 36.206zM892.894 84.298l-29.994-29.992c-4.794-4.794-11.224-7.434-18.099-7.434s-13.306 2.64-18.099 7.434l-432.102 432.099 66.197 66.195 432.098-432.099c9.981-9.981 9.981-26.222 0-36.203zM179.2 716.8c-14.138 0-25.6 11.462-25.6 25.6 0 42.347-34.453 76.8-76.8 76.8-14.138 0-25.6 11.462-25.6 25.6s11.462 25.6 25.6 25.6c42.347 0 76.8 34.453 76.8 76.8 0 14.138 11.462 25.6 25.6 25.6s25.6-11.462 25.6-25.6c0-42.347 34.453-76.8 76.8-76.8 14.138 0 25.6-11.462 25.6-25.6s-11.462-25.6-25.6-25.6c-42.347 0-76.8-34.453-76.8-76.8 0-14.138-11.462-25.6-25.6-25.6zM153.52 844.8c9.725-7.304 18.376-15.957 25.68-25.68 7.304 9.725 15.957 18.376 25.68 25.68-9.725 7.304-18.376 15.957-25.68 25.68-7.304-9.723-15.957-18.376-25.68-25.68zM179.2 204.8c-14.138 0-25.6 11.461-25.6 25.6 0 42.347-34.453 76.8-76.8 76.8-14.138 0-25.6 11.461-25.6 25.6s11.462 25.6 25.6 25.6c42.347 0 76.8 34.453 76.8 76.8 0 14.139 11.462 25.6 25.6 25.6s25.6-11.461 25.6-25.6c0-42.347 34.453-76.8 76.8-76.8 14.138 0 25.6-11.461 25.6-25.6s-11.462-25.6-25.6-25.6c-42.347 0-76.8-34.453-76.8-76.8 0-14.139-11.462-25.6-25.6-25.6zM153.52 332.8c9.725-7.302 18.376-15.957 25.68-25.68 7.304 9.723 15.957 18.374 25.68 25.68-9.725 7.302-18.376 15.957-25.68 25.68-7.304-9.723-15.957-18.378-25.68-25.68z" data-tags="magic-wand, tool, wizard" unicode=""/><glyph d="M512-51.2c-82.619 0-159.64 33.55-216.877 94.472-58.013 61.747-89.962 146.387-89.963 238.328 0 150.678 66.979 258.499 137.893 372.653 54.789 88.197 111.443 179.397 144.248 299.683 3.038 11.138 13.155 18.864 24.699 18.864s21.661-7.726 24.699-18.864c32.813-120.317 89.56-211.536 144.438-299.752 71-114.131 138.062-221.933 138.062-372.584 0-92.131-31.749-176.763-89.395-238.301-57.085-60.938-134.437-94.499-217.805-94.499zM512.003 864.592c-34.509-90.949-80.589-165.125-125.459-237.355-69.856-112.451-130.184-209.566-130.184-345.635 0-160.539 109.902-281.6 255.64-281.6 145.944 0 256 121.061 256 281.6 0 136.027-60.4 233.117-130.338 345.539-44.95 72.254-91.112 146.461-125.659 237.451z" data-tags="drop, droplet, water, color, liquid" unicode=""/><glyph d="M896 512h-35.328l-43.786 88.186c-4.325 8.707-13.208 14.214-22.93 14.214h-205.157c-14.139 0-25.6-11.462-25.6-25.6v-76.8h-62.021l-197.41 341.922c-7.069 12.243-22.725 16.443-34.97 9.37l-177.362-102.4c-12.245-7.069-16.44-22.726-9.37-34.97l204.8-354.723c4.742-8.213 13.346-12.805 22.194-12.805 4.342 0 8.746 1.107 12.776 3.434l138.962 80.23v-416.458c0-14.139 11.462-25.6 25.6-25.6h409.6c14.139 0 25.6 11.461 25.6 25.6v460.8c0 14.139-11.461 25.6-25.6 25.6zM870.4 204.8h-51.2v153.6h51.2v-153.6zM614.4 563.2h163.686l25.422-51.2h-189.109v51.2zM318.408 418.968l-179.2 310.382 133.021 76.8 179.2-310.382-133.021-76.8zM512 51.2v409.6h332.638c0.061 0 0.12-0.006 0.181-0.006 0.035 0 0.074 0.006 0.11 0.006h25.47v-51.2h-76.8c-14.139 0-25.6-11.461-25.6-25.6v-204.8c0-14.139 11.461-25.6 25.6-25.6h76.8v-102.4h-358.4zM793.6 665.6c-38.41 0-57.083 18.142-65.984 33.363-16.923 28.938-14.094 72.59 8.654 133.448 15.293 40.915 34.219 74.72 35.018 76.139 4.534 8.061 13.064 13.050 22.312 13.050s17.778-4.989 22.312-13.050c0.798-1.419 19.725-35.224 35.018-76.139 22.749-60.859 25.578-104.51 8.654-133.448-8.901-15.221-27.574-33.363-65.984-33.363zM793.602 837.656c-3.232-7.454-6.502-15.461-9.581-23.73-23.218-62.379-15.211-83.984-12.205-89.12 1.282-2.19 4.685-8.006 21.784-8.006 17.101 0 20.506 5.821 21.787 8.011 3.021 5.165 11.050 26.891-12.418 89.674-3.021 8.085-6.214 15.894-9.368 23.171z" data-tags="lighter, fire" unicode=""/><glyph d="M873.333 291.693c-3.966 2.246-8.048 4.443-12.222 6.6 48.915 38.344 60.49 80.262 60.49 111.307 0 72.674-61.078 135.928-162.541 174.525 5.875 17.965 8.941 36.88 8.941 55.875 0 98.811-80.389 179.2-179.2 179.2-35.035 0-76.8 8.883-76.8 51.2 0 23.198 29.574 48.541 39.872 55.547 9.354 6.28 13.501 17.936 10.218 28.712s-13.224 18.141-24.49 18.141c-80.245 0-162.696-26.368-226.211-72.346-32.41-23.461-58.131-50.595-76.45-80.65-19.998-32.814-30.139-67.47-30.139-103.005 0-14.744 1.243-29.392 3.608-43.797-43.469-20.992-80.192-48.712-107.018-80.933-32.835-39.437-50.19-84.83-50.19-131.27 0-27.966 6.277-56.472 18.206-84.035-45.49-43.71-69.406-93.979-69.406-146.365 0-78.094 52.608-150.328 148.133-203.397 90.773-50.43 210.906-78.203 338.267-78.203 130.957 0 249.787 17.029 334.603 47.949 125.461 45.738 151.797 110.542 151.797 156.851 0 37.291-17.256 91.518-99.467 138.093zM803.466 44.851c-79.336-28.923-191.939-44.851-317.066-44.851-118.806 0-230.107 25.485-313.402 71.76-78.542 43.634-121.798 99.974-121.798 158.64 0 40.826 21.002 74.779 44.366 99.936 5.885-8.378 12.307-16.573 19.277-24.526 40.771-46.536 97.469-82.053 159.65-100.005 2.371-0.685 4.762-1.011 7.112-1.011 11.114 0 21.347 7.294 24.584 18.504 3.922 13.584-3.91 27.774-17.494 31.698-106.206 30.662-186.294 119.141-186.294 205.805 0 62.675 45.037 122.826 119.269 161.555 26.826-73.859 83.443-135.219 153.798-160.091 2.822-0.998 5.701-1.47 8.533-1.47 10.544 0 20.421 6.566 24.136 17.074 4.712 13.33-2.274 27.957-15.603 32.669-77.837 27.517-136.533 116.192-136.533 206.264 0 51.818 30.333 102.312 85.411 142.179 38.090 27.571 84.11 46.995 131.971 56.328-7.397-13.192-12.582-28.349-12.582-44.907 0-49.502 33.626-102.4 128-102.4 70.579 0 128-57.421 128-128 0-13.867-2.157-27.296-6.403-40.131-20.886 5.683-43.034 10.453-66.326 14.205-13.955 2.246-27.098-7.245-29.346-21.203-2.246-13.958 7.245-27.098 21.205-29.346 71.034-11.442 131.246-33.152 174.128-62.787 27.528-19.022 60.342-50.277 60.342-91.138 0-33.022-21.93-62.36-65.202-87.318-46.827 16.661-101.688 28.875-162.229 35.946-14.043 1.654-26.758-8.413-28.397-22.456s8.414-26.758 22.456-28.397c86.328-10.085 159.312-30.91 211.066-60.23 33.534-18.995 73.506-50.645 73.506-93.544 0-54.286-64.242-89.101-118.134-108.749z" data-tags="poop, toilet, feces, crap" unicode=""/><glyph d="M486.4 205.178c-126.834 0-230.022 103.187-230.022 230.022s103.189 230.022 230.022 230.022 230.022-103.189 230.022-230.022-103.189-230.022-230.022-230.022zM486.4 614.022c-98.603 0-178.822-80.219-178.822-178.822s80.219-178.822 178.822-178.822 178.822 80.219 178.822 178.822-80.219 178.822-178.822 178.822zM486.4 716.8c-14.138 0-25.6 11.462-25.6 25.6v153.6c0 14.138 11.462 25.6 25.6 25.6s25.6-11.462 25.6-25.6v-153.6c0-14.138-11.462-25.6-25.6-25.6zM486.4-51.2c-14.138 0-25.6 11.461-25.6 25.6v153.6c0 14.139 11.462 25.6 25.6 25.6s25.6-11.461 25.6-25.6v-153.6c0-14.139-11.462-25.6-25.6-25.6zM179.2 409.6h-153.6c-14.138 0-25.6 11.461-25.6 25.6s11.462 25.6 25.6 25.6h153.6c14.138 0 25.6-11.461 25.6-25.6s-11.462-25.6-25.6-25.6zM947.2 409.6h-153.6c-14.139 0-25.6 11.461-25.6 25.6s11.461 25.6 25.6 25.6h153.6c14.139 0 25.6-11.461 25.6-25.6s-11.461-25.6-25.6-25.6zM230.4 665.6c-6.552 0-13.102 2.499-18.101 7.498l-102.4 102.4c-9.998 9.998-9.998 26.206 0 36.203s26.206 9.998 36.203 0l102.4-102.4c9.998-9.998 9.998-26.206 0-36.203-4.998-4.998-11.55-7.498-18.102-7.498zM128 51.2c-6.552 0-13.102 2.499-18.101 7.499-9.998 9.997-9.998 26.206 0 36.203l102.4 102.4c9.997 9.997 26.206 9.997 36.203 0s9.998-26.206 0-36.203l-102.4-102.4c-5-5-11.55-7.499-18.102-7.499zM844.8 51.2c-6.552 0-13.102 2.499-18.101 7.499l-102.4 102.4c-9.998 9.997-9.998 26.206 0 36.203 9.997 9.997 26.206 9.997 36.203 0l102.4-102.4c9.998-9.997 9.998-26.206 0-36.203-5-5-11.55-7.499-18.102-7.499zM742.4 665.6c-6.552 0-13.102 2.499-18.101 7.499-9.998 9.997-9.998 26.206 0 36.203l102.4 102.4c9.997 9.998 26.206 9.998 36.203 0 9.998-9.997 9.998-26.206 0-36.203l-102.4-102.4c-5-5-11.55-7.499-18.102-7.499z" data-tags="sun, brightness, weather" unicode=""/><glyph d="M524.8-51.2c-140.179 0-271.968 54.589-371.090 153.71s-153.71 230.91-153.71 371.090c0 115.242 37 224.010 106.997 314.546 33.528 43.365 73.674 81.155 119.325 112.323 46.050 31.44 96.664 55.424 150.437 71.285 9.819 2.901 20.424-0.336 26.957-8.222s7.738-18.906 3.064-28.016c-33.006-64.339-48.379-125.702-48.379-193.115 0-239.97 195.23-435.2 435.2-435.2 67.414 0 128.776 15.371 193.115 48.378 9.107 4.674 20.13 3.469 28.016-3.064s11.12-17.134 8.224-26.957c-15.861-53.773-39.845-104.387-71.286-150.435-31.166-45.65-68.958-85.797-112.323-119.325-90.536-69.998-199.306-106.997-314.546-106.997zM336.397 902.904c-172.741-73.982-285.197-240.059-285.197-429.304 0-261.144 212.456-473.6 473.6-473.6 189.234 0 355.314 112.475 429.304 285.197-52.406-19.598-105.373-29.197-160.504-29.197-129.922 0-252.067 50.594-343.936 142.462-91.869 91.87-142.464 214.016-142.464 343.938 0 55.131 9.6 108.098 29.197 160.504z" data-tags="moon, night" unicode=""/><glyph d="M819.52 153.6h-512.32c-169.39 0-307.2 137.81-307.2 307.2s137.81 307.2 307.2 307.2c82.034 0 160.589-32.917 218.104-90.866 4.483 9.947 10.048 19.469 16.643 28.403 28.87 39.112 75.093 62.462 123.653 62.462 84.696 0 153.6-68.904 153.6-153.6 0-17.957-3.118-35.523-9.096-52.051 3.126 0.142 6.267 0.211 9.416 0.211 112.75 0 204.48-91.73 204.48-204.48s-91.73-204.48-204.48-204.48zM307.2 716.8c-141.158 0-256-114.84-256-256s114.842-256 256-256h512.32c84.518 0 153.28 68.762 153.28 153.28s-68.762 153.28-153.28 153.28c-18.128 0-35.794-3.101-52.507-9.222-11.166-4.088-23.677 0.050-30.202 9.989s-5.349 23.064 2.842 31.685c18.28 19.235 28.347 44.307 28.347 70.589 0 56.464-45.936 102.4-102.4 102.4-32.858 0-62.912-15.187-82.456-41.667-11.798-15.986-18.669-34.707-19.867-54.138-0.67-10.85-8.117-20.096-18.574-23.054-10.462-2.966-21.648 1.006-27.906 9.891-5.632 7.997-11.73 15.701-18.126 22.902-48.587 54.696-118.374 86.066-191.47 86.066z" data-tags="cloud, weather" unicode=""/><glyph d="M819.52 153.6h-179.52c-14.139 0-25.6 11.461-25.6 25.6s11.461 25.6 25.6 25.6h179.52c84.518 0 153.28 68.762 153.28 153.28s-68.762 153.28-153.28 153.28c-18.005 0-35.626-3.086-52.368-9.173-11.168-4.056-23.654 0.099-30.163 10.035-6.507 9.938-5.323 23.048 2.859 31.659 18.154 19.106 28.152 44.15 28.152 70.518 0 56.464-45.936 102.4-102.4 102.4-32.858 0-62.912-15.187-82.456-41.667-11.704-15.859-18.533-34.638-19.746-54.307-0.67-10.867-8.141-20.122-18.622-23.069s-21.682 1.059-27.915 9.984l-0.238 0.342c-5.49 7.795-11.549 15.443-17.952 22.653-48.587 54.694-118.374 86.064-191.47 86.064-141.158 0-256-114.842-256-256 0-141.16 114.842-256 256-256h128c14.138 0 25.6-11.461 25.6-25.6s-11.462-25.6-25.6-25.6h-128c-169.39 0-307.2 137.81-307.2 307.2s137.81 307.2 307.2 307.2c82.050 0 160.621-32.933 218.142-90.901 4.47 9.989 10.026 19.52 16.608 28.438 28.867 39.112 75.090 62.462 123.65 62.462 84.696 0 153.6-68.904 153.6-153.6 0-17.976-3.099-35.542-9.035-52.050 3.11 0.139 6.23 0.21 9.357 0.21 112.75 0 204.48-91.73 204.48-204.48-0.002-112.75-91.731-204.48-204.482-204.48zM658.101 350.901l-102.4 102.4c-9.997 9.997-26.206 9.997-36.203 0l-102.4-102.4c-9.997-9.997-9.997-26.206 0-36.203s26.206-9.997 36.205 0l58.698 58.698v-194.195c0-14.139 11.461-25.6 25.6-25.6s25.6 11.461 25.6 25.6v194.195l58.699-58.698c4.998-4.998 11.549-7.498 18.101-7.498s13.102 2.499 18.101 7.499c9.998 9.997 9.998 26.205 0 36.202z" data-tags="cloud-upload, cloud" unicode=""/><glyph d="M819.52 153.6h-128.32c-14.139 0-25.6 11.461-25.6 25.6s11.461 25.6 25.6 25.6h128.32c84.518 0 153.28 68.762 153.28 153.28s-68.762 153.28-153.28 153.28c-18.005 0-35.626-3.086-52.368-9.173-11.168-4.056-23.654 0.099-30.163 10.035-6.507 9.938-5.323 23.048 2.859 31.659 18.154 19.106 28.152 44.15 28.152 70.518 0 56.464-45.936 102.4-102.4 102.4-32.858 0-62.912-15.187-82.456-41.667-11.704-15.859-18.533-34.638-19.746-54.307-0.67-10.867-8.141-20.122-18.622-23.069s-21.682 1.059-27.915 9.984l-0.238 0.342c-5.49 7.795-11.549 15.443-17.952 22.653-48.587 54.694-118.374 86.064-191.47 86.064-141.158 0-256-114.842-256-256 0-141.16 114.842-256 256-256h76.8c14.138 0 25.6-11.461 25.6-25.6s-11.462-25.6-25.6-25.6h-76.8c-169.39 0-307.2 137.81-307.2 307.2s137.81 307.2 307.2 307.2c82.050 0 160.621-32.933 218.142-90.901 4.47 9.989 10.026 19.52 16.608 28.438 28.867 39.112 75.090 62.462 123.65 62.462 84.696 0 153.6-68.904 153.6-153.6 0-17.976-3.099-35.542-9.035-52.050 3.11 0.139 6.23 0.21 9.357 0.21 112.75 0 204.48-91.73 204.48-204.48-0.002-112.75-91.731-204.48-204.482-204.48zM658.101 299.701c-9.997 9.997-26.206 9.997-36.203 0l-58.698-58.696v194.195c0 14.139-11.461 25.6-25.6 25.6s-25.6-11.461-25.6-25.6v-194.195l-58.698 58.698c-9.998 9.997-26.206 9.997-36.205 0-9.997-9.997-9.997-26.206 0-36.203l102.4-102.4c5-5 11.55-7.499 18.102-7.499s13.102 2.499 18.101 7.499l102.4 102.4c9.998 9.997 9.998 26.205 0 36.202z" data-tags="cloud-download, cloud" unicode=""/><glyph d="M819.52 562.56c-3.126 0-6.245-0.070-9.357-0.21 5.938 16.507 9.037 34.074 9.037 52.050 0 84.696-68.904 153.6-153.6 153.6-48.56 0-94.782-23.35-123.65-62.462-6.582-8.918-12.138-18.451-16.608-28.44-57.522 57.97-136.093 90.902-218.142 90.902-169.39 0-307.2-137.81-307.2-307.2s137.81-307.2 307.2-307.2h512.32c112.75 0 204.48 91.73 204.48 204.48s-91.73 204.48-204.48 204.48zM819.52 204.8h-512.32c-141.158 0-256 114.84-256 256 0 141.158 114.842 256 256 256 73.096 0 142.883-31.37 191.469-86.066 6.403-7.21 12.462-14.858 17.952-22.653l0.238-0.342c6.234-8.923 17.427-12.93 27.915-9.984 10.482 2.947 17.952 12.202 18.622 23.069 1.213 19.669 8.040 38.448 19.746 54.307 19.546 26.482 49.6 41.669 82.458 41.669 56.464 0 102.4-45.936 102.4-102.4 0-26.368-9.998-51.413-28.152-70.518-8.182-8.611-9.366-21.722-2.859-31.659s18.994-14.093 30.163-10.035c16.746 6.086 34.365 9.173 52.368 9.173 84.518 0 153.28-68.762 153.28-153.28s-68.762-153.28-153.28-153.28zM327.867 360.482c-6.749-1.381-13.702-2.082-20.667-2.082-56.464 0-102.4 45.936-102.4 102.4v14.997l7.499-7.499c4.998-4.998 11.549-7.498 18.101-7.498s13.102 2.499 18.101 7.499c9.998 9.997 9.998 26.206 0 36.203l-51.2 51.2c-9.997 9.998-26.206 9.998-36.203 0l-51.2-51.2c-9.998-9.997-9.998-26.206 0-36.203 9.997-9.998 26.206-9.998 36.203 0l7.499 7.498v-14.997c0-84.696 68.904-153.6 153.6-153.6 10.405 0 20.81 1.050 30.928 3.118 13.853 2.834 22.784 16.362 19.95 30.213s-16.352 22.773-30.211 19.95zM468.299 453.301l-7.499-7.498v14.997c0 84.696-68.904 153.6-153.6 153.6-10.403 0-20.81-1.050-30.928-3.12-13.851-2.834-22.782-16.36-19.949-30.211s16.36-22.784 30.211-19.949c6.749 1.381 13.701 2.080 20.667 2.080 56.464 0 102.4-45.936 102.4-102.4v-14.997l-7.499 7.499c-9.997 9.997-26.206 9.997-36.203 0-9.998-9.997-9.998-26.206 0-36.203l51.2-51.2c4.998-5 11.549-7.499 18.101-7.499s13.102 2.499 18.101 7.499l51.2 51.2c9.998 9.997 9.998 26.206 0 36.203-9.997 9.997-26.205 9.997-36.202-0.002z" data-tags="cloud-sync, cloud" unicode=""/><glyph d="M819.2 153.6h-486.4c-14.138 0-25.6 11.461-25.6 25.6s11.462 25.6 25.6 25.6h486.4c84.696 0 153.6 68.904 153.6 153.6s-68.904 153.6-153.6 153.6c-17.576 0-34.797-2.936-51.181-8.726-11.101-3.922-23.451 0.234-29.922 10.075-6.469 9.84-5.389 22.827 2.616 31.464 17.595 18.986 27.286 43.699 27.286 69.587 0 56.464-45.936 102.4-102.4 102.4-53.997 0-98.888-42.162-102.198-95.986-0.667-10.858-8.125-20.107-18.594-23.064-10.474-2.96-21.664 1.027-27.912 9.93-47.957 68.326-126.347 109.12-209.696 109.12-141.158 0-256-114.84-256-256 0-7.77 0.352-15.611 1.045-23.301 1.269-14.082-9.117-26.525-23.198-27.795-14.080-1.278-26.525 9.117-27.795 23.198-0.83 9.211-1.251 18.598-1.251 27.898 0 169.39 137.81 307.2 307.2 307.2 82.483 0 160.917-33.286 218.149-90.933 24.093 53.746 78.16 90.933 140.251 90.933 84.696 0 153.6-68.904 153.6-153.6 0-17.71-3.024-35.056-8.818-51.386 2.931 0.123 5.87 0.186 8.818 0.186 112.926 0 204.8-91.874 204.8-204.8s-91.874-204.8-204.8-204.8zM179.2 179.2c-6.552 0-13.102 2.499-18.102 7.499l-102.4 102.4c-9.997 9.997-9.997 26.206 0 36.203s26.206 9.997 36.205 0l84.298-84.298 237.898 237.898c9.998 9.997 26.206 9.997 36.205 0 9.997-9.997 9.997-26.206 0-36.203l-256-256c-5-5-11.55-7.499-18.102-7.499z" data-tags="cloud-check, cloud" unicode=""/><glyph d="M925.040 890.421c-25.429 16.701-61.077 31.488-105.955 43.955-89.2 24.778-207.35 38.424-332.685 38.424s-243.485-13.646-332.686-38.424c-44.877-12.467-80.526-27.254-105.955-43.955-31.69-20.813-47.758-44.774-47.758-71.221v-614.4c0-26.446 16.069-50.41 47.758-71.222 25.429-16.701 61.077-31.488 105.955-43.954 89.202-24.779 207.352-38.424 332.686-38.424s243.485 13.645 332.686 38.426c44.878 12.466 80.526 27.253 105.955 43.954 31.69 20.811 47.758 44.774 47.758 71.221v614.4c0 26.446-16.069 50.408-47.76 71.221zM167.418 885.043c84.864 23.574 198.149 36.557 318.982 36.557s234.117-12.982 318.982-36.557c91.928-25.536 116.218-54.235 116.218-65.843s-24.29-40.307-116.218-65.843c-84.866-23.574-198.149-36.557-318.982-36.557s-234.118 12.982-318.982 36.557c-91.928 25.536-116.218 54.235-116.218 65.843s24.29 40.307 116.218 65.843zM805.382 138.957c-84.866-23.574-198.149-36.557-318.982-36.557s-234.117 12.982-318.982 36.557c-91.928 25.536-116.218 54.235-116.218 65.843v131.389c25.168-15.803 59.611-29.846 102.514-41.765 89.202-24.779 207.352-38.424 332.686-38.424s243.485 13.645 332.686 38.426c42.902 11.917 77.347 25.962 102.514 41.765v-131.39c0-11.608-24.29-40.307-116.218-65.843zM805.382 343.757c-84.866-23.574-198.149-36.557-318.982-36.557s-234.117 12.982-318.982 36.557c-91.928 25.536-116.218 54.235-116.218 65.843v131.39c25.168-15.803 59.611-29.848 102.514-41.766 89.202-24.778 207.352-38.424 332.686-38.424s243.485 13.646 332.686 38.424c42.902 11.918 77.347 25.963 102.514 41.766v-131.39c0-11.608-24.29-40.307-116.218-65.843zM805.382 548.557c-84.866-23.574-198.149-36.557-318.982-36.557s-234.117 12.982-318.982 36.557c-91.928 25.536-116.218 54.235-116.218 65.843v131.39c25.168-15.803 59.611-29.848 102.514-41.766 89.202-24.778 207.352-38.424 332.686-38.424s243.485 13.646 332.686 38.424c42.902 11.918 77.347 25.963 102.514 41.766v-131.39c0-11.608-24.29-40.307-116.218-65.843z" data-tags="database, storage" unicode=""/><glyph d="M742.4 563.2h-25.6v76.8c0 127.043-103.357 230.4-230.4 230.4s-230.4-103.357-230.4-230.4v-76.8h-25.6c-42.347 0-76.8-34.453-76.8-76.8v-409.6c0-42.347 34.453-76.8 76.8-76.8h512c42.347 0 76.8 34.453 76.8 76.8v409.6c0 42.347-34.453 76.8-76.8 76.8zM307.2 640c0 98.811 80.389 179.2 179.2 179.2s179.2-80.389 179.2-179.2v-76.8h-358.4v76.8zM768 76.8c0-14.115-11.485-25.6-25.6-25.6h-512c-14.115 0-25.6 11.485-25.6 25.6v409.6c0 14.115 11.485 25.6 25.6 25.6h512c14.115 0 25.6-11.485 25.6-25.6v-409.6z" data-tags="lock, privacy, encryption, security" unicode=""/><glyph d="M390.71-35.955c-2.109 0-4.248 0.262-6.378 0.81-45.976 11.803-90.149 30.042-131.291 54.21-11.923 7.003-16.13 22.21-9.501 34.344 8.15 14.925 12.459 31.866 12.459 48.992 0 56.464-45.936 102.4-102.4 102.4-17.125 0-34.066-4.309-48.992-12.459-12.133-6.627-27.339-2.421-34.342 9.501-24.17 41.142-42.408 85.315-54.211 131.293-3.333 12.989 3.92 26.349 16.629 30.629 41.699 14.037 69.717 53.034 69.717 97.037s-28.018 83-69.718 97.040c-12.707 4.278-19.962 17.638-16.627 30.627 11.803 45.976 30.042 90.149 54.211 131.291 7.003 11.923 22.21 16.13 34.344 9.501 14.923-8.15 31.864-12.459 48.99-12.459 56.464 0 102.4 45.936 102.4 102.4 0 17.126-4.309 34.067-12.459 48.99-6.629 12.134-2.422 27.341 9.501 34.344 41.141 24.168 85.314 42.408 131.291 54.211 12.994 3.334 26.349-3.92 30.627-16.627 14.040-41.701 53.037-69.718 97.040-69.718s83 28.018 97.038 69.717c4.28 12.71 17.645 19.965 30.629 16.629 45.976-11.802 90.15-30.042 131.293-54.211 11.922-7.003 16.128-22.208 9.501-34.342-8.152-14.926-12.461-31.867-12.461-48.992 0-56.464 45.936-102.4 102.4-102.4 17.126 0 34.067 4.309 48.992 12.459 12.138 6.629 27.341 2.421 34.344-9.501 24.166-41.141 42.406-85.314 54.21-131.291 3.334-12.989-3.918-26.349-16.627-30.627-41.701-14.040-69.718-53.037-69.718-97.040s28.018-83 69.718-97.038c12.707-4.28 19.962-17.638 16.627-30.629-11.803-45.976-30.042-90.15-54.21-131.291-7.005-11.925-22.208-16.128-34.344-9.502-14.926 8.152-31.867 12.461-48.992 12.461-56.464 0-102.4-45.936-102.4-102.4 0-17.125 4.309-34.066 12.461-48.992 6.627-12.136 2.421-27.341-9.502-34.344-41.141-24.166-85.314-42.406-131.291-54.21-12.992-3.336-26.349 3.918-30.629 16.627-14.038 41.701-53.035 69.718-97.038 69.718s-83-28.018-97.040-69.718c-3.578-10.624-13.502-17.437-24.25-17.437zM512 102.4c57.715 0 109.693-32.138 135.917-82.029 26.637 8.218 52.507 18.875 77.299 31.846-5.541 16.077-8.416 33.075-8.416 50.182 0 84.696 68.904 153.6 153.6 153.6 17.107 0 34.106-2.875 50.181-8.418 12.971 24.792 23.63 50.662 31.846 77.299-49.89 26.226-82.027 78.203-82.027 135.918s32.138 109.691 82.029 135.918c-8.218 26.637-18.875 52.506-31.846 77.299-16.077-5.542-33.074-8.418-50.182-8.418-84.696 0-153.6 68.904-153.6 153.6 0 17.107 2.875 34.106 8.418 50.181-24.792 12.971-50.662 23.63-77.299 31.846-26.226-49.89-78.203-82.027-135.918-82.027s-109.691 32.138-135.917 82.027c-26.637-8.216-52.507-18.874-77.299-31.846 5.542-16.075 8.416-33.072 8.416-50.181 0-84.696-68.904-153.6-153.6-153.6-17.109 0-34.106 2.874-50.181 8.418-12.973-24.794-23.63-50.662-31.846-77.299 49.89-26.227 82.027-78.203 82.027-135.918s-32.138-109.693-82.027-135.917c8.216-26.637 18.875-52.507 31.846-77.299 16.075 5.541 33.074 8.416 50.181 8.416 84.696 0 153.6-68.904 153.6-153.6 0-17.109-2.875-34.106-8.418-50.181 24.794-12.971 50.662-23.63 77.299-31.846 26.227 49.89 78.203 82.027 135.918 82.027zM512 307.2c-84.696 0-153.6 68.904-153.6 153.6s68.904 153.6 153.6 153.6 153.6-68.904 153.6-153.6-68.904-153.6-153.6-153.6zM512 563.2c-56.464 0-102.4-45.936-102.4-102.4s45.936-102.4 102.4-102.4c56.464 0 102.4 45.936 102.4 102.4s-45.936 102.4-102.4 102.4z" data-tags="cog, gear, preferences, settings, generate, control, options" unicode=""/><glyph d="M793.6 870.4h-179.2v25.6c0 42.347-34.453 76.8-76.8 76.8h-102.4c-42.347 0-76.8-34.453-76.8-76.8v-25.6h-179.2c-42.347 0-76.8-34.453-76.8-76.8v-51.2c0-33.373 21.403-61.829 51.2-72.397v-644.403c0-42.349 34.453-76.8 76.8-76.8h512c42.349 0 76.8 34.451 76.8 76.8v644.403c29.797 10.568 51.2 39.024 51.2 72.397v51.2c0 42.347-34.451 76.8-76.8 76.8zM409.6 896c0 14.115 11.485 25.6 25.6 25.6h102.4c14.115 0 25.6-11.485 25.6-25.6v-25.6h-153.6v25.6zM742.4 0h-512c-14.115 0-25.6 11.485-25.6 25.6v640h563.2v-640c0-14.115-11.485-25.6-25.6-25.6zM819.2 742.4c0-14.115-11.485-25.6-25.6-25.6h-614.4c-14.115 0-25.6 11.485-25.6 25.6v51.2c0 14.115 11.485 25.6 25.6 25.6h614.4c14.115 0 25.6-11.485 25.6-25.6v-51.2zM640 614.4c-14.139 0-25.6-11.462-25.6-25.6v-512c0-14.139 11.461-25.6 25.6-25.6s25.6 11.461 25.6 25.6v512c0 14.138-11.461 25.6-25.6 25.6zM486.4 614.4c-14.138 0-25.6-11.462-25.6-25.6v-512c0-14.139 11.462-25.6 25.6-25.6s25.6 11.461 25.6 25.6v512c0 14.138-11.462 25.6-25.6 25.6zM332.8 614.4c-14.138 0-25.6-11.462-25.6-25.6v-512c0-14.139 11.462-25.6 25.6-25.6s25.6 11.461 25.6 25.6v512c0 14.138-11.462 25.6-25.6 25.6z" data-tags="trash, bin, remove, waste" unicode=""/><glyph d="M281.6 153.6c-42.347 0-76.8 34.451-76.8 76.8s34.453 76.8 76.8 76.8 76.8-34.451 76.8-76.8-34.453-76.8-76.8-76.8zM281.6 256c-14.115 0-25.6-11.485-25.6-25.6s11.485-25.6 25.6-25.6 25.6 11.485 25.6 25.6-11.485 25.6-25.6 25.6zM281.6 358.4c-42.347 0-76.8 34.451-76.8 76.8s34.453 76.8 76.8 76.8 76.8-34.451 76.8-76.8-34.453-76.8-76.8-76.8zM281.6 460.8c-14.115 0-25.6-11.485-25.6-25.6s11.485-25.6 25.6-25.6 25.6 11.485 25.6 25.6-11.485 25.6-25.6 25.6zM281.6 563.2c-42.347 0-76.8 34.453-76.8 76.8s34.453 76.8 76.8 76.8 76.8-34.453 76.8-76.8-34.453-76.8-76.8-76.8zM281.6 665.6c-14.115 0-25.6-11.485-25.6-25.6s11.485-25.6 25.6-25.6 25.6 11.485 25.6 25.6-11.485 25.6-25.6 25.6zM691.2 563.2c-42.349 0-76.8 34.453-76.8 76.8s34.451 76.8 76.8 76.8 76.8-34.453 76.8-76.8-34.451-76.8-76.8-76.8zM691.2 665.6c-14.115 0-25.6-11.485-25.6-25.6s11.485-25.6 25.6-25.6 25.6 11.485 25.6 25.6-11.485 25.6-25.6 25.6zM691.2 358.4c-42.349 0-76.8 34.451-76.8 76.8s34.451 76.8 76.8 76.8 76.8-34.451 76.8-76.8-34.451-76.8-76.8-76.8zM691.2 460.8c-14.115 0-25.6-11.485-25.6-25.6s11.485-25.6 25.6-25.6 25.6 11.485 25.6 25.6-11.485 25.6-25.6 25.6zM691.2 153.6c-42.349 0-76.8 34.451-76.8 76.8s34.451 76.8 76.8 76.8 76.8-34.451 76.8-76.8-34.451-76.8-76.8-76.8zM691.2 256c-14.115 0-25.6-11.485-25.6-25.6s11.485-25.6 25.6-25.6 25.6 11.485 25.6 25.6-11.485 25.6-25.6 25.6zM793.6 0h-614.4c-70.579 0-128 57.421-128 128v614.4c0 70.579 57.421 128 128 128h614.4c70.579 0 128-57.421 128-128v-614.4c0-70.579-57.421-128-128-128zM179.2 819.2c-42.347 0-76.8-34.453-76.8-76.8v-614.4c0-42.349 34.453-76.8 76.8-76.8h614.4c42.349 0 76.8 34.451 76.8 76.8v614.4c0 42.347-34.451 76.8-76.8 76.8h-614.4z" data-tags="dice, game, random, board-game" unicode=""/><glyph d="M486.4 0c-4.283 0-8.566 1.074-12.434 3.222-4.808 2.67-119.088 66.624-235.122 171.376-68.643 61.97-123.467 125.363-162.944 188.418-50.365 80.443-75.901 160.715-75.901 238.584 0 148.218 120.582 268.8 268.8 268.8 50.173 0 103.462-18.805 150.051-52.952 27.251-19.973 50.442-44.043 67.549-69.606 17.107 25.565 40.299 49.634 67.55 69.606 46.589 34.147 99.878 52.952 150.050 52.952 148.218 0 268.8-120.582 268.8-268.8 0-77.869-25.538-158.141-75.901-238.584-39.478-63.054-94.301-126.446-162.944-188.418-116.034-104.754-230.314-168.706-235.122-171.376-3.867-2.149-8.15-3.222-12.434-3.222zM268.8 819.2c-119.986 0-217.6-97.614-217.6-217.6 0-155.624 120.302-297.077 221.224-388.338 90.131-81.504 181.44-138.658 213.976-158.042 32.536 19.384 123.845 76.538 213.976 158.042 100.922 91.261 221.224 232.714 221.224 388.338 0 119.986-97.616 217.6-217.6 217.6-87.187 0-171.856-71.725-193.314-136.096-3.485-10.453-13.267-17.504-24.286-17.504s-20.802 7.051-24.286 17.504c-21.456 64.371-106.125 136.096-193.314 136.096z" data-tags="heart, love, like, favorite" unicode=""/><glyph d="M793.598 0c-4.205 0-8.422 1.034-12.258 3.126l-269.341 146.912-269.341-146.912c-8.598-4.691-19.118-4.061-27.098 1.613-7.981 5.677-12.022 15.41-10.413 25.069l49.034 294.206-195.483 195.485c-6.781 6.781-9.203 16.782-6.277 25.914s10.712 15.862 20.17 17.438l294.341 49.058 122.17 244.339c4.336 8.674 13.2 14.152 22.898 14.152s18.562-5.478 22.898-14.152l122.17-244.339 294.341-49.058c9.459-1.576 17.243-8.307 20.17-17.438s0.504-19.133-6.277-25.914l-195.483-195.485 49.034-294.206c1.61-9.659-2.434-19.392-10.413-25.069-4.419-3.144-9.621-4.739-14.84-4.739zM512 204.8c4.219 0 8.437-1.042 12.259-3.126l235.445-128.426-42.557 255.344c-1.36 8.155 1.302 16.464 7.15 22.309l169.626 169.626-258.131 43.022c-8.080 1.346-15.027 6.477-18.69 13.803l-105.102 210.205-105.102-210.205c-3.664-7.326-10.61-12.458-18.69-13.803l-258.131-43.022 169.624-169.626c5.846-5.845 8.509-14.155 7.15-22.309l-42.557-255.344 235.446 128.426c3.821 2.085 8.040 3.126 12.259 3.126z" data-tags="star, rating, favorite" unicode=""/><glyph d="M793.598 0c-4.205 0-8.422 1.034-12.256 3.126l-153.595 83.778c-12.413 6.768-16.986 22.32-10.218 34.731 6.77 12.414 22.322 16.992 34.733 10.216l107.442-58.603-8.424 50.542c-2.325 13.947 7.098 27.136 21.042 29.461 13.941 2.33 27.136-7.096 29.461-21.042l17.067-102.4c1.611-9.661-2.434-19.394-10.413-25.070-4.418-3.144-9.619-4.739-14.838-4.739zM759.434 204.795c-12.29 0-23.134 8.875-25.221 21.397l-17.066 102.4c-1.36 8.155 1.302 16.464 7.15 22.309l51.2 51.2c9.997 9.997 26.206 9.997 36.203 0 9.998-9.997 9.998-26.206 0-36.203l-41.885-41.885 14.899-89.406c2.325-13.946-7.098-27.136-21.043-29.459-1.422-0.237-2.838-0.35-4.238-0.352zM896 460.8c-6.552 0-13.102 2.499-18.101 7.499-9.998 9.997-9.998 26.206 0 36.203l16.024 16.026-104.53 17.422c-13.947 2.325-23.368 15.514-21.043 29.461s15.533 23.368 29.459 21.043l153.6-25.6c9.459-1.576 17.243-8.307 20.17-17.438s0.504-19.133-6.277-25.914l-51.2-51.2c-5-5.003-11.55-7.502-18.102-7.502zM691.232 554.664c-1.398 0-2.814 0.115-4.238 0.352l-51.2 8.533c-8.080 1.346-15.027 6.477-18.69 13.802l-51.2 102.395c-6.323 12.646-1.198 28.024 11.448 34.346 12.643 6.323 28.024 1.197 34.346-11.448l45.37-90.736 38.341-6.39c13.947-2.325 23.368-15.514 21.043-29.461-2.085-12.518-12.933-21.392-25.219-21.392zM230.402 0c-5.221 0-10.421 1.595-14.842 4.739-7.981 5.677-12.022 15.41-10.413 25.069l49.034 294.206-195.482 195.485c-6.781 6.781-9.203 16.782-6.277 25.914s10.71 15.862 20.17 17.438l294.341 49.058 122.17 244.339c4.336 8.674 13.202 14.152 22.898 14.152 0 0 0 0 0 0 9.698 0 18.562-5.478 22.898-14.152l25.6-51.2c6.322-12.646 1.195-28.024-11.45-34.346-12.646-6.325-28.024-1.198-34.347 11.45l-2.701 5.403-105.101-210.203c-3.664-7.326-10.61-12.458-18.69-13.803l-258.133-43.022 169.626-169.626c5.846-5.845 8.509-14.155 7.149-22.309l-42.557-255.344 235.446 128.426c7.642 4.17 16.875 4.166 24.518 0l25.603-13.966c12.411-6.77 16.984-22.32 10.214-34.733-6.77-12.411-22.318-16.984-34.733-10.214l-13.344 7.278-269.341-146.912c-3.835-2.093-8.053-3.126-12.258-3.126z" data-tags="star-half, rating" unicode=""/><glyph d="M281.57 546.13c-12.29 0-23.134 8.874-25.221 21.395-2.325 13.946 7.098 27.136 21.043 29.461l89.541 14.923 19.77 39.539c6.323 12.646 21.701 17.773 34.346 11.45 12.646-6.323 17.771-21.701 11.45-34.346l-25.6-51.2c-3.664-7.326-10.61-12.458-18.69-13.803l-102.4-17.067c-1.424-0.237-2.842-0.352-4.238-0.352zM128 460.8c-6.552 0-13.102 2.499-18.101 7.499l-51.2 51.2c-6.781 6.781-9.203 16.782-6.277 25.914s10.71 15.862 20.17 17.438l102.4 17.067c13.957 2.326 27.136-7.099 29.461-21.043 2.325-13.946-7.098-27.136-21.043-29.461l-53.331-8.89 16.024-16.026c9.998-9.997 9.998-26.206 0-36.203-5-4.997-11.55-7.496-18.102-7.496zM759.434 204.795c-12.29 0-23.134 8.875-25.221 21.397l-17.066 102.4c-1.36 8.155 1.302 16.464 7.15 22.309l51.2 51.2c9.997 9.997 26.206 9.997 36.203 0 9.998-9.997 9.998-26.206 0-36.203l-41.885-41.885 14.899-89.406c2.325-13.946-7.098-27.136-21.043-29.459-1.422-0.237-2.838-0.352-4.238-0.352zM793.598 0c-4.205 0-8.422 1.034-12.256 3.126l-153.606 83.784c-12.413 6.768-16.986 22.32-10.216 34.731 6.766 12.414 22.32 16.99 34.731 10.216l107.453-58.61-8.424 50.542c-2.325 13.947 7.098 27.136 21.042 29.461 13.955 2.322 27.136-7.096 29.461-21.042l17.067-102.4c1.61-9.661-2.434-19.394-10.413-25.070-4.418-3.144-9.619-4.739-14.838-4.739zM273.098 255.995c-1.398 0-2.814 0.115-4.238 0.354-13.946 2.325-23.366 15.514-21.043 29.461l6.368 38.205-41.885 41.885c-9.998 9.997-9.998 26.206 0 36.203s26.206 9.997 36.203 0l51.2-51.2c5.846-5.845 8.509-14.155 7.15-22.31l-8.533-51.2c-2.088-12.522-12.934-21.397-25.222-21.397zM230.402 0c-5.221 0-10.421 1.595-14.842 4.739-7.981 5.677-12.022 15.41-10.413 25.069l25.6 153.598c2.325 13.947 15.514 23.368 29.461 21.043 13.946-2.323 23.366-15.514 21.043-29.459l-16.957-101.742 56.246 30.68c12.41 6.771 27.963 2.197 34.733-10.214 6.77-12.413 2.197-27.963-10.216-34.733l-102.4-55.854c-3.834-2.093-8.051-3.126-12.256-3.126zM435.222 111.704c-9.067 0-17.85 4.827-22.498 13.347-6.77 12.411-2.197 27.963 10.216 34.731l76.8 41.891c7.64 4.168 16.875 4.168 24.517 0l25.595-13.962c12.413-6.768 16.986-22.32 10.216-34.731-6.766-12.414-22.32-16.99-34.731-10.216l-13.338 7.274-64.541-35.203c-3.893-2.123-8.094-3.131-12.237-3.131zM896 460.8c-6.552 0-13.102 2.499-18.101 7.499-9.998 9.997-9.998 26.206 0 36.203l16.024 16.026-104.53 17.422c-13.947 2.325-23.368 15.514-21.043 29.461s15.533 23.368 29.459 21.043l153.6-25.6c9.459-1.576 17.243-8.307 20.17-17.438s0.504-19.133-6.277-25.914l-51.2-51.2c-5-5.003-11.55-7.502-18.102-7.502zM691.234 554.662c-1.398 0-2.816 0.115-4.24 0.352l-51.202 8.533c-8.078 1.346-15.026 6.477-18.688 13.802l-51.2 102.395c-6.323 12.646-1.198 28.024 11.448 34.346 12.643 6.323 28.024 1.197 34.346-11.448l45.37-90.736 38.344-6.39c13.946-2.325 23.366-15.514 21.042-29.461-2.086-12.518-12.933-21.392-25.219-21.392zM460.779 716.795c-3.846 0-7.754 0.87-11.429 2.707-12.646 6.323-17.771 21.701-11.45 34.346l51.2 102.4c4.338 8.674 13.203 14.152 22.899 14.152 0 0 0 0 0 0 9.698 0 18.562-5.478 22.898-14.152l25.598-51.2c6.323-12.646 1.197-28.024-11.448-34.346-12.646-6.325-28.024-1.198-34.346 11.45l-2.702 5.403-28.301-56.603c-4.486-8.971-13.53-14.157-22.92-14.157z" data-tags="star-empty, rating" unicode=""/><glyph d="M76.8 0c-14.138 0-25.6 11.461-25.6 25.6v768c0 14.138 11.462 25.6 25.6 25.6s25.6-11.462 25.6-25.6v-768c0-14.139-11.462-25.6-25.6-25.6zM179.181 460.798c-5.346 0-10.734 1.667-15.341 5.122-11.31 8.483-13.603 24.53-5.12 35.838 3.45 4.6 85.789 112.64 199.68 112.64 86.715 0 144.038-30.666 194.614-57.722 44.813-23.973 83.515-44.677 138.186-44.677 112.246 0 192.389 106.49 238.093 190.344-35.736-20.317-81.411-36.744-135.693-36.744-113.005 0-171.389 58.386-222.901 109.899-50.925 50.922-94.902 94.901-186.699 94.901-113.883 0-183.629-91.238-184.32-92.16-8.483-11.31-24.53-13.603-35.84-5.12s-13.603 24.53-5.12 35.84c3.45 4.6 86.080 112.64 225.28 112.64 113.003 0 171.389-58.386 222.901-109.899 50.925-50.922 94.904-94.901 186.699-94.901 113.883 0 183.629 91.238 184.32 92.16 7.534 10.043 21.238 13.141 32.362 7.315 11.122-5.827 16.374-18.861 12.405-30.771-1.090-3.269-27.288-80.958-79.786-159.704-31.341-47.011-65.638-84.654-101.941-111.88-46.997-35.248-97.384-53.12-149.76-53.12-67.504 0-115.715 25.79-162.338 50.733-49.669 26.57-96.582 51.667-170.462 51.667-88.576 0-158.029-91.238-158.72-92.16-5.029-6.706-12.717-10.242-20.499-10.242z" data-tags="flag, report, mark" unicode=""/><glyph d="M896 665.6h-819.2c-42.347 0-76.8-34.453-76.8-76.8v-460.8c0-42.349 34.453-76.8 76.8-76.8h819.2c42.349 0 76.8 34.451 76.8 76.8v460.8c0 42.347-34.451 76.8-76.8 76.8zM896 614.4c1.514 0 2.99-0.158 4.434-0.411l-385.632-257.090c-14.862-9.907-41.938-9.907-56.802 0l-385.634 257.090c1.443 0.253 2.92 0.411 4.434 0.411h819.2zM896 102.4h-819.2c-14.115 0-25.6 11.485-25.6 25.6v438.566l378.4-252.267c15.925-10.618 36.363-15.925 56.8-15.925s40.877 5.307 56.802 15.925l378.398 252.267v-438.566c0-14.115-11.485-25.6-25.6-25.6z" data-tags="envelope, mail, letter, email" unicode=""/><glyph d="M486.4-51.2c-127.043 0-230.4 103.357-230.4 230.4v614.4c0 98.811 80.389 179.2 179.2 179.2s179.2-80.389 179.2-179.2v-563.2c0-70.579-57.421-128-128-128s-128 57.421-128 128v307.2c0 14.138 11.462 25.6 25.6 25.6s25.6-11.462 25.6-25.6v-307.2c0-42.349 34.453-76.8 76.8-76.8 42.349 0 76.8 34.451 76.8 76.8v563.2c0 70.579-57.421 128-128 128s-128-57.421-128-128v-614.4c0-98.811 80.389-179.2 179.2-179.2s179.2 80.389 179.2 179.2v358.4c0 14.138 11.461 25.6 25.6 25.6s25.6-11.462 25.6-25.6v-358.4c0-127.043-103.357-230.4-230.4-230.4z" data-tags="paperclip, attachment" unicode=""/><glyph d="M1001.331 441.168l-138.157 315.786c-15.272 34.906-57.075 62.246-95.174 62.246h-512c-38.099 0-79.904-27.341-95.176-62.246l-138.157-315.786c-12.71-29.056-22.667-76.658-22.667-108.368v-204.8c0-42.349 34.453-76.8 76.8-76.8h870.4c42.349 0 76.8 34.451 76.8 76.8v204.8c0 31.714-9.958 79.314-22.669 108.368zM207.733 736.432c7.227 16.522 30.234 31.568 48.267 31.568h512c18.034 0 41.038-15.046 48.269-31.568l138.157-315.786c1.557-3.558 3.082-7.59 4.547-11.95-3.84 0.595-7.77 0.904-11.773 0.904h-307.2c-14.139 0-25.6-11.461-25.6-25.6v-25.6c0-56.464-45.936-102.4-102.4-102.4s-102.4 45.936-102.4 102.4v25.6c0 14.139-11.462 25.6-25.6 25.6h-307.2c-4.002 0-7.933-0.309-11.771-0.902 1.466 4.36 2.992 8.392 4.547 11.95l138.157 315.784zM972.8 128c0-14.115-11.485-25.6-25.6-25.6h-870.4c-14.115 0-25.6 11.485-25.6 25.6v204.8c0 14.115 11.485 25.6 25.6 25.6h281.6c0-84.696 68.904-153.6 153.6-153.6s153.6 68.904 153.6 153.6h281.6c14.115 0 25.6-11.485 25.6-25.6v-204.8z" data-tags="inbox, drawer" unicode=""/><glyph d="M1017.429 452.326c-2.429 2.698-60.515 66.826-151.349 131.706-53.587 38.277-107.499 68.826-160.234 90.8-66.837 27.848-132.056 41.968-193.846 41.968s-127.010-14.12-193.846-41.97c-52.736-21.973-106.646-52.523-160.234-90.8-90.832-64.878-148.92-129.006-151.349-131.704-8.763-9.736-8.763-24.515 0-34.251 2.429-2.699 60.517-66.827 151.349-131.707 53.587-38.277 107.498-68.827 160.234-90.8 66.837-27.848 132.056-41.968 193.846-41.968s127.010 14.12 193.846 41.968c52.734 21.973 106.645 52.523 160.234 90.8 90.834 64.88 148.92 129.008 151.349 131.706 8.762 9.736 8.762 24.517 0 34.253zM643.789 643.157c46.458-39.074 73.011-95.923 73.011-156.757 0-112.926-91.874-204.8-204.8-204.8-112.928 0-204.8 91.874-204.8 204.8 0 60.835 26.554 117.685 73.014 156.757 42.107 13.744 86.602 22.443 131.786 22.443 45.186 0 89.682-8.699 131.789-22.443zM835.418 327.387c-78.488-55.925-198.309-122.587-323.418-122.587s-244.93 66.662-323.416 122.587c-59.24 42.21-104.574 84.89-127.458 107.813 22.888 22.928 68.222 65.606 127.458 107.813 27.13 19.331 59.2 39.942 94.72 58.643-17.766-35.224-27.304-74.52-27.304-115.256 0-141.16 114.842-256 256-256 141.16 0 256 114.84 256 256 0 40.734-9.538 80.032-27.301 115.256 35.517-18.701 67.589-39.312 94.718-58.643 59.238-42.21 104.573-84.89 127.456-107.813-22.888-22.928-68.222-65.606-127.456-107.813z" data-tags="eye, vision, view" unicode=""/><glyph d="M947.2 768h-76.8v128c0 42.347-34.453 76.8-76.8 76.8h-563.2c-42.347 0-76.8-34.453-76.8-76.8v-128h-76.8c-42.347 0-76.8-34.453-76.8-76.8v-460.8c0-42.349 34.453-76.8 76.8-76.8h76.8v-128c0-42.347 34.453-76.8 76.8-76.8h563.2c42.347 0 76.8 34.453 76.8 76.8v128h76.8c42.349 0 76.8 34.451 76.8 76.8v460.8c0 42.347-34.451 76.8-76.8 76.8zM204.8 896c0 14.115 11.485 25.6 25.6 25.6h563.2c14.115 0 25.6-11.485 25.6-25.6v-128h-614.4v128zM793.6 0h-563.2c-14.115 0-25.6 11.485-25.6 25.6v332.8h614.4v-332.8c0-14.115-11.485-25.6-25.6-25.6zM972.8 230.4c0-14.115-11.485-25.6-25.6-25.6h-76.8v153.6h25.6c14.139 0 25.6 11.461 25.6 25.6s-11.461 25.6-25.6 25.6h-768c-14.138 0-25.6-11.461-25.6-25.6s11.462-25.6 25.6-25.6h25.6v-153.6h-76.8c-14.115 0-25.6 11.485-25.6 25.6v460.8c0 14.115 11.485 25.6 25.6 25.6h870.4c14.115 0 25.6-11.485 25.6-25.6v-460.8zM742.4 256h-460.8c-14.138 0-25.6 11.461-25.6 25.6s11.462 25.6 25.6 25.6h460.8c14.139 0 25.6-11.461 25.6-25.6s-11.461-25.6-25.6-25.6zM742.4 153.6h-460.8c-14.138 0-25.6 11.461-25.6 25.6s11.462 25.6 25.6 25.6h460.8c14.139 0 25.6-11.461 25.6-25.6s-11.461-25.6-25.6-25.6zM742.4 51.2h-460.8c-14.138 0-25.6 11.461-25.6 25.6s11.462 25.6 25.6 25.6h460.8c14.139 0 25.6-11.461 25.6-25.6s-11.461-25.6-25.6-25.6zM844.8 512c-42.349 0-76.8 34.453-76.8 76.8s34.451 76.8 76.8 76.8 76.8-34.453 76.8-76.8-34.451-76.8-76.8-76.8zM844.8 614.4c-14.115 0-25.6-11.485-25.6-25.6s11.485-25.6 25.6-25.6 25.6 11.485 25.6 25.6-11.485 25.6-25.6 25.6z" data-tags="printer, print" unicode=""/><glyph d="M914.101 683.701l-230.4 230.4c-4.8 4.802-11.312 7.499-18.101 7.499h-486.4c-42.347 0-76.8-34.453-76.8-76.8v-819.2c0-42.349 34.453-76.8 76.8-76.8h665.6c42.349 0 76.8 34.451 76.8 76.8v640c0 6.79-2.698 13.301-7.499 18.101zM859.797 665.6h-168.597c-14.115 0-25.6 11.485-25.6 25.6v168.597l194.197-194.197zM870.4 25.6c0-14.115-11.485-25.6-25.6-25.6h-665.6c-14.115 0-25.6 11.485-25.6 25.6v819.2c0 14.115 11.485 25.6 25.6 25.6h435.2v-179.2c0-42.347 34.451-76.8 76.8-76.8h179.2v-588.8z" data-tags="file-empty, file, paper, new" unicode=""/><glyph d="M914.101 683.701l-230.4 230.4c-4.8 4.802-11.312 7.499-18.101 7.499h-486.4c-42.347 0-76.8-34.453-76.8-76.8v-819.2c0-42.349 34.453-76.8 76.8-76.8h665.6c42.349 0 76.8 34.451 76.8 76.8v640c0 6.79-2.698 13.301-7.499 18.101zM859.797 665.6h-168.597c-14.115 0-25.6 11.485-25.6 25.6v168.597l194.197-194.197zM844.8 0h-665.6c-14.115 0-25.6 11.485-25.6 25.6v819.2c0 14.115 11.485 25.6 25.6 25.6h435.2v-179.2c0-42.347 34.451-76.8 76.8-76.8h179.2v-588.8c0-14.115-11.485-25.6-25.6-25.6zM588.8 307.2h-128v128c0 14.139-11.462 25.6-25.6 25.6s-25.6-11.461-25.6-25.6v-128h-128c-14.138 0-25.6-11.461-25.6-25.6s11.462-25.6 25.6-25.6h128v-128c0-14.139 11.462-25.6 25.6-25.6s25.6 11.461 25.6 25.6v128h128c14.139 0 25.6 11.461 25.6 25.6s-11.461 25.6-25.6 25.6z" data-tags="file-add, file" unicode=""/><glyph d="M896 870.4h-460.8c-42.347 0-76.8-34.453-76.8-76.8v-153.6c0-14.138 11.462-25.6 25.6-25.6s25.6 11.462 25.6 25.6v153.6c0 14.115 11.485 25.6 25.6 25.6h387.278l-196.702-84.301c-35.088-15.038-62.576-56.723-62.576-94.899v-486.4h-128c-14.115 0-25.6 11.485-25.6 25.6v153.6c0 14.139-11.462 25.6-25.6 25.6s-25.6-11.461-25.6-25.6v-153.6c0-42.347 34.453-76.8 76.8-76.8h128v-76.8c0-22.181 9.234-40.99 25.331-51.606 8.886-5.861 19.243-8.814 30.171-8.814 8.867 0 18.109 1.946 27.242 5.859l264.277 113.261c35.091 15.038 62.579 56.723 62.579 94.901v614.4c0 42.347-34.451 76.8-76.8 76.8zM921.6 179.2c0-17.963-15.035-40.765-31.546-47.838l-264.277-113.261c-4.912-2.107-8.163-1.955-9.062-1.363-0.894 0.59-2.315 3.518-2.315 8.862v614.4c0 17.962 15.035 40.763 31.546 47.838l273.043 117.019c1.672-3.4 2.611-7.221 2.611-11.258v-614.4zM427.701 504.501l-153.6 153.6c-9.997 9.998-26.206 9.998-36.203 0s-9.998-26.206 0-36.203l109.899-109.898h-322.197c-14.138 0-25.6-11.462-25.6-25.6s11.462-25.6 25.6-25.6h322.197l-109.898-109.899c-9.998-9.997-9.998-26.206 0-36.203 4.998-4.998 11.549-7.498 18.101-7.498s13.102 2.499 18.101 7.499l153.6 153.6c9.998 9.997 9.998 26.205 0 36.202z" data-tags="enter, door, sign-in, log-in, login" unicode=""/><glyph d="M588.8 563.2c14.139 0 25.6 11.462 25.6 25.6v204.8c0 42.347-34.451 76.8-76.8 76.8h-460.8c-42.347 0-76.8-34.453-76.8-76.8v-614.4c0-38.178 27.488-79.862 62.576-94.899l264.278-113.262c9.134-3.915 18.373-5.859 27.24-5.859 10.926 0.002 21.288 2.955 30.173 8.814 16.099 10.616 25.333 29.426 25.333 51.606v76.8h128c42.349 0 76.8 34.451 76.8 76.8v204.8c0 14.139-11.461 25.6-25.6 25.6s-25.6-11.461-25.6-25.6v-204.8c0-14.115-11.485-25.6-25.6-25.6h-128v486.4c0 38.176-27.488 79.861-62.576 94.899l-196.702 84.301h387.278c14.115 0 25.6-11.485 25.6-25.6v-204.8c0-14.138 11.461-25.6 25.6-25.6zM326.854 687.838c16.51-7.075 31.546-29.877 31.546-47.838v-614.4c0-5.344-1.421-8.272-2.317-8.862-0.898-0.589-4.15-0.742-9.061 1.362l-264.278 113.262c-16.509 7.074-31.544 29.875-31.544 47.838v614.4c0 4.037 0.939 7.859 2.611 11.258l273.043-117.019zM939.701 504.501l-153.6 153.6c-9.997 9.998-26.206 9.998-36.203 0-9.998-9.997-9.998-26.206 0-36.203l109.899-109.898h-322.197c-14.139 0-25.6-11.462-25.6-25.6s11.461-25.6 25.6-25.6h322.197l-109.899-109.899c-9.998-9.997-9.998-26.206 0-36.203 5-4.998 11.55-7.498 18.102-7.498s13.102 2.499 18.101 7.499l153.6 153.6c9.998 9.997 9.998 26.205 0 36.202z" data-tags="exit, door, sign-out, log-out, logout" unicode=""/><glyph d="M955.296 613.086l-460.8 153.6c-5.254 1.752-10.936 1.752-16.19 0l-460.8-153.6c-10.454-3.485-17.506-13.267-17.506-24.286s7.051-20.802 17.504-24.286l136.096-45.365v-135.149c0-6.789 2.698-13.301 7.499-18.101 4.486-4.488 112.346-109.899 325.301-109.899 77.454 0 149.712 13.941 214.766 41.434 13.024 5.504 19.118 20.523 13.616 33.547-5.504 13.024-20.525 19.117-33.547 13.616-58.714-24.816-124.266-37.397-194.835-37.397-99.586 0-172.84 25.781-216.758 47.41-32.53 16.019-54.259 32.203-64.842 40.926v106.547l273.504-91.168c2.627-0.877 5.362-1.314 8.096-1.314s5.467 0.437 8.096 1.314l273.504 91.168v-45.686c-29.797-10.568-51.2-39.024-51.2-72.397 0-31.269 18.792-58.213 45.666-70.181l-44.901-179.61c-1.91-7.648-0.194-15.75 4.658-21.965s12.294-9.845 20.178-9.845h102.4c7.883 0 15.326 3.632 20.178 9.845s6.568 14.315 4.658 21.965l-44.901 179.61c26.874 11.968 45.666 38.912 45.666 70.181 0 33.373-21.403 61.829-51.2 72.397v62.752l136.096 45.366c10.453 3.483 17.504 13.266 17.504 24.285s-7.051 20.802-17.504 24.286zM793.6 409.6c14.115 0 25.6-11.485 25.6-25.6s-11.485-25.6-25.6-25.6-25.6 11.485-25.6 25.6 11.485 25.6 25.6 25.6zM775.187 153.6l18.413 73.648 18.413-73.648h-36.826zM791.536 563.898l-300.928 50.155c-13.952 2.322-27.136-7.099-29.461-21.042-2.325-13.947 7.098-27.138 21.043-29.461l205.533-34.256-201.323-67.11-379.846 126.616 379.846 126.616 379.845-126.616-74.709-24.902z" data-tags="graduation-hat, education, university, college, school" unicode=""/><glyph d="M947.2 51.2h-870.4c-42.347 0-76.8 34.451-76.8 76.8v665.6c0 42.347 34.453 76.8 76.8 76.8h870.4c42.349 0 76.8-34.453 76.8-76.8v-665.6c0-42.349-34.451-76.8-76.8-76.8zM76.8 819.2c-14.115 0-25.6-11.485-25.6-25.6v-665.6c0-14.115 11.485-25.6 25.6-25.6h870.4c14.115 0 25.6 11.485 25.6 25.6v665.6c0 14.115-11.485 25.6-25.6 25.6h-870.4zM486.4 665.6h-307.2c-14.138 0-25.6 11.462-25.6 25.6s11.462 25.6 25.6 25.6h307.2c14.138 0 25.6-11.462 25.6-25.6s-11.462-25.6-25.6-25.6zM486.4 512h-307.2c-14.138 0-25.6 11.461-25.6 25.6s11.462 25.6 25.6 25.6h307.2c14.138 0 25.6-11.461 25.6-25.6s-11.462-25.6-25.6-25.6zM486.4 409.6h-307.2c-14.138 0-25.6 11.461-25.6 25.6s11.462 25.6 25.6 25.6h307.2c14.138 0 25.6-11.461 25.6-25.6s-11.462-25.6-25.6-25.6zM486.4 307.2h-307.2c-14.138 0-25.6 11.461-25.6 25.6s11.462 25.6 25.6 25.6h307.2c14.138 0 25.6-11.461 25.6-25.6s-11.462-25.6-25.6-25.6zM435.2 204.8h-256c-14.138 0-25.6 11.461-25.6 25.6s11.462 25.6 25.6 25.6h256c14.138 0 25.6-11.461 25.6-25.6s-11.462-25.6-25.6-25.6zM918.677 637.757l-41.646 30.258-15.909 48.957h-51.475l-41.646 30.258-41.645-30.258h-51.475l-15.909-48.957-41.646-30.258 15.909-48.957-15.909-48.957 41.646-30.259 6.752-20.774c-0.077-0.794-0.123-1.597-0.123-2.41v-256c0-10.355 6.237-19.69 15.803-23.651 9.568-3.965 20.578-1.77 27.899 5.55l58.698 58.698 58.699-58.699c4.898-4.899 11.443-7.501 18.107-7.499 3.298 0 6.624 0.637 9.79 1.949 9.566 3.963 15.803 13.298 15.803 23.653v256c0 0.813-0.046 1.616-0.122 2.41l6.752 20.774 41.646 30.259-15.91 48.957 15.91 48.957zM677.514 618.2l25.010 18.17 9.554 29.4h30.912l25.011 18.173 25.011-18.171h30.912l9.554-29.4 25.010-18.17-9.554-29.402 9.554-29.4-25.010-18.171-9.554-29.4h-30.912l-25.011-18.173-25.011 18.171h-30.912l-9.554 29.4-25.010 18.171 9.554 29.402-9.554 29.4zM786.101 325.301c-9.997 9.997-26.206 9.997-36.203 0l-33.098-33.098v168.426h9.555l41.645-30.258 41.645 30.256h9.555v-168.426l-33.099 33.099z" data-tags="license, certificate" unicode=""/><glyph d="M1014.803 915.654c-5.826 4.864-13.509 6.891-20.982 5.533l-563.2-102.4c-12.173-2.213-21.021-12.816-21.021-25.187v-583.632c-6.986 4.722-14.629 9.181-22.936 13.336-42.166 21.085-97.662 32.696-156.264 32.696s-114.098-11.611-156.264-32.696c-47.806-23.902-74.136-57.749-74.136-95.304s26.33-71.402 74.136-95.304c42.166-21.085 97.662-32.696 156.264-32.696s114.098 11.611 156.264 32.696c47.806 23.902 74.136 57.749 74.136 95.304v516.294l512 94.549v-426.475c-6.984 4.722-14.629 9.182-22.936 13.336-42.166 21.085-97.662 32.696-156.264 32.696s-114.098-11.611-156.264-32.696c-47.808-23.902-74.136-57.749-74.136-95.304s26.328-71.402 74.136-95.304c42.166-21.085 97.662-32.696 156.264-32.696s114.098 11.611 156.264 32.696c47.808 23.902 74.136 57.749 74.136 95.304v665.6c0 7.59-3.368 14.79-9.197 19.654zM230.4 51.2c-102.563 0-179.2 40.547-179.2 76.8s76.637 76.8 179.2 76.8 179.2-40.547 179.2-76.8-76.637-76.8-179.2-76.8zM460.8 696.362v75.874l512 93.091v-74.416l-512-94.549zM793.6 153.6c-102.565 0-179.2 40.547-179.2 76.8s76.635 76.8 179.2 76.8c102.566 0 179.2-40.547 179.2-76.8s-76.634-76.8-179.2-76.8z" data-tags="music-note, music, song, audio" unicode=""/><glyph d="M383.997 204.8c-3.902 0-7.822 0.891-11.445 2.702-8.674 4.336-14.152 13.2-14.152 22.898v460.8c0 9.698 5.478 18.562 14.152 22.898 8.67 4.334 19.051 3.4 26.808-2.418l307.2-230.4c6.446-4.834 10.24-12.422 10.24-20.48s-3.794-15.645-10.24-20.48l-307.2-230.4c-4.517-3.387-9.923-5.12-15.363-5.12zM409.6 640v-358.4l238.933 179.2-238.933 179.2zM998.4 870.4h-972.8c-14.138 0-25.6-11.462-25.6-25.6v-768c0-14.139 11.462-25.6 25.6-25.6h972.8c14.139 0 25.6 11.461 25.6 25.6v768c0 14.138-11.461 25.6-25.6 25.6zM153.6 409.6h-102.4v102.4h102.4v-102.4zM153.6 563.2h-102.4v102.4h102.4v-102.4zM51.2 358.4h102.4v-102.4h-102.4v102.4zM204.8 819.2h614.4v-716.8h-614.4v716.8zM870.4 512h102.4v-102.4h-102.4v102.4zM870.4 563.2v102.4h102.4v-102.4h-102.4zM870.4 358.4h102.4v-102.4h-102.4v102.4zM972.8 716.8h-102.4v102.4h102.4v-102.4zM153.6 819.2v-102.4h-102.4v102.4h102.4zM51.2 204.8h102.4v-102.4h-102.4v102.4zM870.4 102.4v102.4h102.4v-102.4h-102.4z" data-tags="film-play, video, movie" unicode=""/><glyph d="M979.496 99.669c-0.003 0-0.005 0-0.008 0-12.378 0.002-24.846 4.957-37.059 14.725l-176.038 140.832c-28.272 22.613-49.59 66.97-49.59 103.174v153.6c0 36.203 21.318 80.56 49.589 103.174l176.037 140.83c12.216 9.773 24.686 14.726 37.066 14.726 22.155 0.002 44.509-16.675 44.509-53.931v-563.2c0-14.234-3.275-26.197-9.733-35.558-8.056-11.675-20.73-18.373-34.771-18.373zM972.8 714.736l-174.427-139.542c-15.896-12.717-30.373-42.837-30.373-63.194v-153.6c0-20.358 14.477-50.478 30.371-63.194l174.429-139.542v559.072zM588.8 102.4h-512c-42.347 0-76.8 34.453-76.8 76.8v512c0 42.347 34.453 76.8 76.8 76.8h512c42.347 0 76.8-34.453 76.8-76.8v-512c0-42.347-34.453-76.8-76.8-76.8zM76.8 716.8c-14.115 0-25.6-11.485-25.6-25.6v-512c0-14.115 11.485-25.6 25.6-25.6h512c14.115 0 25.6 11.485 25.6 25.6v512c0 14.115-11.485 25.6-25.6 25.6h-512z" data-tags="camera-video, video" unicode=""/><glyph d="M486.4 204.8c-127.043 0-230.4 103.357-230.4 230.4s103.357 230.4 230.4 230.4c127.043 0 230.4-103.357 230.4-230.4s-103.357-230.4-230.4-230.4zM486.4 614.4c-98.811 0-179.2-80.389-179.2-179.2s80.389-179.2 179.2-179.2 179.2 80.389 179.2 179.2-80.389 179.2-179.2 179.2zM896 51.2h-819.2c-42.347 0-76.8 34.451-76.8 76.8v512c0 42.347 34.453 76.8 76.8 76.8h76.8c21.246 0 54.278 13.682 69.302 28.706l29.992 29.992c24.914 24.915 70.272 43.702 105.506 43.702h256c35.235 0 80.594-18.789 105.506-43.702l29.992-29.99c15.024-15.026 48.056-28.707 69.302-28.707h76.8c42.349 0 76.8-34.453 76.8-76.8v-512c0-42.349-34.451-76.8-76.8-76.8zM76.8 665.6c-14.115 0-25.6-11.485-25.6-25.6v-512c0-14.115 11.485-25.6 25.6-25.6h819.2c14.115 0 25.6 11.485 25.6 25.6v512c0 14.115-11.485 25.6-25.6 25.6h-76.8c-35.235 0-80.594 18.789-105.506 43.702l-29.992 29.99c-15.024 15.026-48.056 28.707-69.302 28.707h-256c-21.246 0-54.278-13.682-69.302-28.706l-29.992-29.992c-24.914-24.915-70.272-43.702-105.506-43.702h-76.8z" data-tags="camera, photo" unicode=""/><glyph d="M947.2-51.2h-870.4c-42.347 0-76.8 34.451-76.8 76.8v870.4c0 42.347 34.453 76.8 76.8 76.8h870.4c42.349 0 76.8-34.453 76.8-76.8v-870.4c0-42.349-34.451-76.8-76.8-76.8zM76.8 921.6c-14.115 0-25.6-11.485-25.6-25.6v-870.4c0-14.115 11.485-25.6 25.6-25.6h870.4c14.115 0 25.6 11.485 25.6 25.6v870.4c0 14.115-11.485 25.6-25.6 25.6h-870.4zM665.6 512c-56.464 0-102.4 45.936-102.4 102.4s45.936 102.4 102.4 102.4 102.4-45.936 102.4-102.4-45.936-102.4-102.4-102.4zM665.6 665.6c-28.232 0-51.2-22.968-51.2-51.2s22.968-51.2 51.2-51.2 51.2 22.968 51.2 51.2-22.968 51.2-51.2 51.2zM896 870.4h-768c-14.138 0-25.6-11.462-25.6-25.6v-614.4c0-14.139 11.462-25.6 25.6-25.6h768c14.139 0 25.6 11.461 25.6 25.6v614.4c0 14.138-11.461 25.6-25.6 25.6zM153.6 374.267l164.318 184.858c4.203 4.728 9.694 7.371 15.462 7.44 5.725 0.090 11.322-2.438 15.638-7.062l283.27-303.502h-478.69v118.267zM870.4 256h-168.075l-315.875 338.437c-14.269 15.288-33.312 23.605-53.691 23.325-20.354-0.246-39.214-8.992-53.107-24.621l-126.051-141.808v367.867h716.8v-563.2z" data-tags="picture, photo, polaroid" unicode=""/><glyph d="M742.4 51.2h-512c-14.138 0-25.6 11.461-25.6 25.6s11.462 25.6 25.6 25.6h512c14.139 0 25.6-11.461 25.6-25.6s-11.461-25.6-25.6-25.6zM844.8 819.2c-14.139 0-25.6-11.462-25.6-25.6v-768c0-14.115-11.485-25.6-25.6-25.6h-563.2c-42.347 0-76.8 34.453-76.8 76.8s34.453 76.8 76.8 76.8h460.8c42.349 0 76.8 34.451 76.8 76.8v614.4c0 42.347-34.451 76.8-76.8 76.8h-512c-42.347 0-76.8-34.453-76.8-76.8v-768c0-70.579 57.421-128 128-128h563.2c42.349 0 76.8 34.451 76.8 76.8v768c0 14.138-11.461 25.6-25.6 25.6zM179.2 870.4h512c14.115 0 25.6-11.485 25.6-25.6v-614.4c0-14.115-11.485-25.6-25.6-25.6h-460.8c-28.794 0-55.392-9.563-76.8-25.67v665.67c0 14.115 11.485 25.6 25.6 25.6z" data-tags="book, read" unicode=""/><glyph d="M793.605-51.202c-7.331 0-14.482 3.155-19.442 8.941l-287.763 335.723-287.763-335.723c-6.971-8.131-18.269-11.067-28.318-7.349-10.048 3.715-16.718 13.298-16.718 24.010v921.6c0 14.138 11.462 25.6 25.6 25.6h614.4c14.139 0 25.6-11.462 25.6-25.6v-921.6c0-10.712-6.67-20.294-16.718-24.010-2.899-1.074-5.904-1.592-8.877-1.592zM486.4 358.4c7.474 0 14.573-3.266 19.437-8.939l262.163-305.858v826.797h-563.2v-826.797l262.163 305.858c4.864 5.674 11.963 8.939 19.437 8.939z" data-tags="bookmark, ribbon" unicode=""/><glyph d="M486.4 409.6c-155.275 0-281.6 126.325-281.6 281.6s126.325 281.6 281.6 281.6 281.6-126.325 281.6-281.6-126.325-281.6-281.6-281.6zM486.4 921.6c-127.043 0-230.4-103.357-230.4-230.4s103.357-230.4 230.4-230.4c127.042 0 230.4 103.357 230.4 230.4s-103.358 230.4-230.4 230.4zM896-51.2h-819.2c-42.347 0-76.8 34.451-76.8 76.8 0 3.485 0.712 86.285 62.72 168.96 36.094 48.126 85.514 86.36 146.883 113.634 74.957 33.314 168.085 50.206 276.797 50.206 108.71 0 201.838-16.893 276.797-50.206 61.37-27.275 110.789-65.507 146.883-113.634 62.008-82.675 62.72-165.475 62.72-168.96 0-42.349-34.451-76.8-76.8-76.8zM486.4 307.2c-178.52 0-310.267-48.789-381-141.093-53.011-69.174-54.195-139.904-54.2-140.61 0-14.013 11.485-25.498 25.6-25.498h819.2c14.115 0 25.6 11.485 25.6 25.6-0.006 0.603-1.189 71.333-54.198 140.507-70.734 92.304-202.483 141.093-381.002 141.093z" data-tags="user, persona, profile, avatar" unicode=""/><glyph d="M947.2 51.2h-563.2c-42.347 0-76.8 34.453-76.8 76.8 0 2.461 0.538 60.952 47.331 118.544 26.883 33.088 63.541 59.31 108.952 77.941 54.856 22.504 122.858 33.915 202.117 33.915s147.261-11.411 202.117-33.915c45.411-18.63 82.067-44.853 108.952-77.941 46.794-57.592 47.331-116.083 47.331-118.544 0-42.347-34.453-76.8-76.8-76.8zM358.4 127.869c0.072-14.056 11.528-25.469 25.6-25.469h563.2c14.072 0 25.528 11.413 25.6 25.469-0.048 1.786-1.656 45.802-37.851 88.786-49.88 59.235-143.019 90.546-269.349 90.546s-219.469-31.31-269.349-90.546c-36.194-42.984-37.803-87-37.851-88.786zM665.6 409.6c-112.926 0-204.8 91.874-204.8 204.8 0 112.928 91.874 204.8 204.8 204.8s204.8-91.872 204.8-204.8c0-112.926-91.874-204.8-204.8-204.8zM665.6 768c-84.696 0-153.6-68.904-153.6-153.6s68.904-153.6 153.6-153.6 153.6 68.904 153.6 153.6-68.904 153.6-153.6 153.6zM230.4 51.2h-153.6c-42.347 0-76.8 34.451-76.8 76.8 0 1.915 0.386 47.446 33.92 92.16 19.373 25.832 45.778 46.299 78.483 60.834 39.126 17.389 87.438 26.206 143.597 26.206 9.16 0 18.232-0.235 26.962-0.701 14.118-0.754 24.954-12.81 24.2-26.928-0.752-14.117-12.781-24.96-26.928-24.2-7.826 0.418-15.979 0.629-24.234 0.629-199.366 0-204.666-121.826-204.8-128.131 0.072-14.054 11.528-25.469 25.6-25.469h153.6c14.138 0 25.6-11.461 25.6-25.6s-11.462-25.6-25.6-25.6zM256 358.4c-84.696 0-153.6 68.904-153.6 153.6s68.904 153.6 153.6 153.6 153.6-68.904 153.6-153.6-68.904-153.6-153.6-153.6zM256 614.4c-56.464 0-102.4-45.936-102.4-102.4s45.936-102.4 102.4-102.4 102.4 45.936 102.4 102.4c0 56.464-45.936 102.4-102.4 102.4z" data-tags="users, group, team, people" unicode=""/><glyph d="M691.2 0h-409.6c-42.347 0-76.8 34.451-76.8 76.8v476.482l-119.904-39.968c-13.414-4.472-27.91 2.778-32.381 16.19l-51.2 153.6c-4.029 12.086 1.442 25.296 12.837 30.994l307.2 153.6c7.936 3.968 17.36 3.542 24.907-1.122s12.141-12.904 12.141-21.776c0-70.579 57.421-128 128-128s128 57.421 128 128c0 8.872 4.594 17.112 12.141 21.776 7.547 4.666 16.971 5.090 24.907 1.122l307.2-153.6c11.395-5.698 16.867-18.907 12.837-30.994l-51.2-153.6c-4.47-13.411-18.966-20.662-32.381-16.19l-119.904 39.968v-476.482c0-42.349-34.451-76.8-76.8-76.8zM230.398 614.4c5.307 0 10.555-1.65 14.97-4.832 6.675-4.811 10.632-12.539 10.632-20.768v-512c0-14.115 11.485-25.6 25.6-25.6h409.6c14.115 0 25.6 11.485 25.6 25.6v512c0 8.229 3.957 15.957 10.632 20.768 6.677 4.811 15.258 6.123 23.064 3.518l129.314-43.104 36.083 108.25-254.624 127.312c-17.946-79.995-89.538-139.944-174.869-139.944-85.333 0-156.925 59.949-174.869 139.944l-254.624-127.312 36.083-108.25 129.314 43.104c2.645 0.88 5.378 1.314 8.094 1.314z" data-tags="shirt, clothing, tee, tshirt" unicode=""/><glyph d="M921.6 486.4v51.2c0 3.974-0.925 7.894-2.702 11.448l-102.4 204.8c-4.336 8.674-13.2 14.152-22.898 14.152h-614.4c-9.698 0-18.562-5.478-22.898-14.152l-102.4-204.8c-1.778-3.554-2.702-7.474-2.702-11.448v-51.2c0-41.786 20.131-78.955 51.2-102.33v-332.87h-25.6c-14.138 0-25.6-11.461-25.6-25.6s11.462-25.6 25.6-25.6h819.2c14.139 0 25.6 11.461 25.6 25.6s-11.461 25.6-25.6 25.6h-25.598v332.87c31.067 23.376 51.198 60.544 51.198 102.33zM588.8 409.6c-42.347 0-76.8 34.453-76.8 76.8v25.6h153.6v-25.6c0-42.347-34.453-76.8-76.8-76.8zM102.4 486.4v25.6h153.6v-25.6c0-42.347-34.453-76.8-76.8-76.8s-76.8 34.453-76.8 76.8zM460.8 716.8v-153.6h-146.413l38.4 153.6h108.013zM620.013 716.8l38.4-153.6h-146.413v153.6h108.013zM307.2 512h153.6v-25.6c0-42.347-34.453-76.8-76.8-76.8s-76.8 34.453-76.8 76.8v25.6zM716.8 512h153.6v-25.6c0-42.347-34.453-76.8-76.8-76.8s-76.8 34.453-76.8 76.8v25.6zM854.578 563.2h-143.39l-38.4 153.6h104.99l76.8-153.6zM195.022 716.8h104.99l-38.4-153.6h-143.39l76.8 153.6zM153.6 360.974c8.274-1.686 16.835-2.574 25.6-2.574 41.827 0 79.029 20.168 102.4 51.29 23.371-31.122 60.573-51.29 102.4-51.29s79.029 20.168 102.4 51.29c18.474-24.598 45.589-42.354 76.8-48.714v-309.776h-409.6v309.774zM819.202 51.2h-204.802v309.774c31.211 6.362 58.325 24.115 76.8 48.714 23.371-31.12 60.573-51.288 102.4-51.288 8.766 0 17.326 0.89 25.602 2.576v-309.776zM716.8 230.4c0-14.138-11.462-25.6-25.6-25.6s-25.6 11.462-25.6 25.6c0 14.138 11.462 25.6 25.6 25.6s25.6-11.462 25.6-25.6zM230.4 204.8c-6.552 0-13.102 2.499-18.102 7.499-9.997 9.997-9.997 26.206 0 36.203l51.2 51.2c9.998 9.997 26.206 9.997 36.205 0 9.997-9.997 9.997-26.206 0-36.203l-51.2-51.2c-5-5-11.55-7.499-18.102-7.499zM281.6 102.4c-6.552 0-13.102 2.499-18.101 7.499-9.998 9.997-9.998 26.206 0 36.203l153.6 153.6c9.997 9.997 26.206 9.997 36.203 0 9.998-9.997 9.998-26.206 0-36.203l-153.6-153.6c-5-5-11.55-7.499-18.102-7.499zM435.2 102.4c-6.552 0-13.102 2.499-18.102 7.499-9.997 9.997-9.997 26.206 0 36.203l51.2 51.2c9.998 9.997 26.206 9.997 36.205 0s9.998-26.206 0-36.203l-51.2-51.2c-5-5-11.55-7.499-18.102-7.499z" data-tags="store, shop, market" unicode=""/><glyph d="M409.6-51.2c-56.464 0-102.4 45.936-102.4 102.4s45.936 102.4 102.4 102.4 102.4-45.936 102.4-102.4-45.936-102.4-102.4-102.4zM409.6 102.4c-28.232 0-51.2-22.968-51.2-51.2s22.968-51.2 51.2-51.2 51.2 22.968 51.2 51.2-22.968 51.2-51.2 51.2zM768-51.2c-56.464 0-102.4 45.936-102.4 102.4s45.936 102.4 102.4 102.4 102.4-45.936 102.4-102.4-45.936-102.4-102.4-102.4zM768 102.4c-28.232 0-51.2-22.968-51.2-51.2s22.968-51.2 51.2-51.2 51.2 22.968 51.2 51.2-22.968 51.2-51.2 51.2zM898.021 744.112c-12.859 15.181-32.258 23.888-53.221 23.888h-626.846l-5.085 30.506c-6.72 40.315-43.998 71.894-84.869 71.894h-51.2c-14.138 0-25.6-11.462-25.6-25.6s11.462-25.6 25.6-25.6h51.2c15.722 0 31.781-13.603 34.366-29.112l85.566-513.395c6.718-40.314 43.997-71.893 84.867-71.893h512c14.139 0 25.6 11.461 25.6 25.6s-11.461 25.6-25.6 25.6h-512c-15.722 0-31.781 13.603-34.366 29.11l-12.63 75.784 510.206 44.366c39.69 3.451 75.907 36.938 82.458 76.234l34.366 206.194c3.448 20.677-1.952 41.243-14.813 56.424zM862.331 696.106l-34.366-206.194c-2.699-16.186-20.043-32.221-36.39-33.645l-514.214-44.714-50.874 305.246h618.314c5.968 0 10.995-2.054 14.155-5.782 3.157-3.73 4.357-9.024 3.376-14.912z" data-tags="cart, shop" unicode=""/><glyph d="M384-4.33c-20.554 0-39.84 7.966-54.306 22.43l-260.394 260.395c-14.466 14.464-22.432 33.75-22.432 54.304s7.966 39.84 22.434 54.306l439.594 439.592c24.91 24.914 70.269 43.702 105.504 43.702h230.4c42.349 0 76.8-34.453 76.8-76.8v-230.4c0-35.232-18.787-80.59-43.699-105.504l-439.595-439.595c-14.466-14.466-33.752-22.43-54.306-22.43zM614.4 819.2c-21.246 0-54.278-13.682-69.299-28.704l-439.595-439.595c-4.795-4.795-7.435-11.224-7.435-18.101s2.64-13.306 7.435-18.099l260.394-260.397c4.795-4.794 11.224-7.434 18.101-7.434s13.307 2.64 18.102 7.435l439.594 439.592c15.021 15.024 28.704 48.058 28.704 69.302v230.4c0 14.115-11.485 25.6-25.6 25.6h-230.4zM742.4 614.4c-42.349 0-76.8 34.453-76.8 76.8s34.451 76.8 76.8 76.8 76.8-34.453 76.8-76.8-34.451-76.8-76.8-76.8zM742.4 716.8c-14.115 0-25.6-11.485-25.6-25.6s11.485-25.6 25.6-25.6 25.6 11.485 25.6 25.6-11.485 25.6-25.6 25.6z" data-tags="tag, price" unicode=""/><glyph d="M819.2-51.2c-90.691 0-187.154 25.699-286.706 76.386-91.794 46.736-182.48 113.654-262.258 193.522-79.763 79.853-146.595 170.624-193.272 262.498-50.608 99.61-76.269 196.102-76.269 286.795 0 58.774 54.765 115.55 78.31 137.232 33.85 31.17 87.104 67.568 125.794 67.568 19.245 0 41.803-12.589 70.994-39.616 21.782-20.17 46.27-47.51 70.814-79.067 14.794-19.021 88.592-116.267 88.592-162.917 0-38.27-43.25-64.853-89.037-92.998-17.694-10.875-35.992-22.122-49.226-32.73-14.114-11.315-16.645-17.288-17.061-18.629 48.602-121.128 197.141-269.651 318.203-318.184 1.085 0.341 7.067 2.699 18.592 17.075 10.608 13.234 21.854 31.531 32.73 49.227 28.144 45.789 54.726 89.038 92.998 89.038 46.648 0 143.896-73.798 162.917-88.592 31.557-24.546 58.898-49.032 79.067-70.816 27.029-29.189 39.616-51.747 39.616-70.992 0-38.701-36.378-92.115-67.528-126.099-21.693-23.662-78.491-78.701-137.272-78.701zM204.477 921.597c-13.731-0.262-50.634-17.054-90.789-54.029-38.115-35.099-61.792-73.25-61.792-99.568 0-344.523 423.093-768 767.304-768 26.28 0 64.418 23.795 99.528 62.099 37.003 40.366 53.806 77.413 54.069 91.178-1.662 9.728-28.57 47.563-102.232 104.283-63.322 48.762-114.699 74.886-127.901 75.237-0.925-0.274-6.656-2.467-18.277-17.222-10.104-12.832-20.912-30.418-31.366-47.424-28.683-46.666-55.774-90.744-95.122-90.744-6.336 0-12.597 1.219-18.608 3.624-134.376 53.75-293.31 212.685-347.061 347.061-6.456 16.138-7.485 41.414 24.272 70.184 16.882 15.293 40.25 29.656 62.848 43.546 17.006 10.453 34.59 21.261 47.422 31.366 14.755 11.619 16.95 17.352 17.222 18.277-0.352 13.203-26.475 64.579-75.237 127.902-56.72 73.659-94.554 100.568-104.282 102.23z" data-tags="phone-handset, telephone, phone, call, contact" unicode=""/><glyph d="M916.19 517.291c-53.283-0.002-149.901 19.214-180.016 49.326-18.466 18.466-22.854 41.64-26.381 60.262-4.344 22.931-6.95 29.755-17.010 34.077-46.194 19.853-112.456 31.238-181.8 31.238-68.621 0-134.16-11.189-179.81-30.699-9.939-4.248-12.499-11.050-16.741-33.938-3.459-18.672-7.765-41.91-26.234-60.381-16.814-16.813-51.976-28.36-78.512-35.086-34.218-8.674-70.85-13.646-100.502-13.646-33.982 0-56.965 6.461-70.258 19.755-20.021 20.019-32.797 47.4-35.050 75.12-1.901 23.365 2.6 57.979 34.824 90.205 52.315 52.315 122.699 93.11 209.195 121.253 79.549 25.882 170.093 39.562 261.842 39.562 92.378 0 183.67-13.848 264.006-40.048 87.304-28.472 158.35-69.688 211.163-122.499 53.766-53.765 40.451-125.102 0.629-164.928-13.173-13.17-35.856-19.571-69.347-19.573zM510.986 743.395c77.157 0 148.901-12.571 202.014-35.398 36.51-15.69 42.632-48 47.099-71.59 2.672-14.104 4.979-26.285 12.28-33.586 12.915-12.914 87.362-34.331 143.811-34.33 24.638 0 32.398 4.219 33.4 4.835 15.851 16.061 35.757 55.621-0.885 92.261-92.392 92.392-256.493 147.552-438.966 147.552-180.973 0-343.526-54.51-434.832-145.818-14.76-14.76-21.488-31.533-19.998-49.853 1.258-15.462 8.72-31.445 19.986-42.827 0.965-0.606 8.846-5 34.291-5 56.242 0 130.12 21.048 142.811 33.738 7.226 7.227 9.482 19.403 12.094 33.502 4.382 23.659 10.386 56.061 46.963 71.691 52.538 22.456 123.541 34.822 199.931 34.822zM844.8 51.2h-665.6c-34.347 0-66.043 13.509-89.248 38.040-23.206 24.531-34.936 56.928-33.032 91.222 0.218 3.928 6.024 97.307 65.029 191.453 34.904 55.694 81.181 100.088 137.541 131.946 69.658 39.374 154.613 59.339 252.51 59.339s182.853-19.965 252.509-59.339c56.363-31.858 102.637-76.251 137.542-131.946 59.005-94.146 64.811-187.525 65.030-191.453 1.904-34.296-9.827-66.691-33.034-91.222s-54.901-38.040-89.248-38.040zM512 512c-159.592 0-275.859-55.696-345.574-165.541-52.726-83.077-58.336-168.038-58.387-168.888-1.114-20.050 5.67-38.942 19.107-53.146s31.923-22.026 52.054-22.026h665.6c20.131 0 38.618 7.822 52.054 22.027 13.435 14.203 20.222 33.096 19.104 53.195-0.046 0.798-5.658 85.762-58.384 168.837-69.715 109.845-185.984 165.541-345.574 165.541zM512 153.6c-84.696 0-153.6 68.904-153.6 153.6s68.904 153.6 153.6 153.6 153.6-68.904 153.6-153.6-68.904-153.6-153.6-153.6zM512 409.6c-56.464 0-102.4-45.936-102.4-102.4s45.936-102.4 102.4-102.4c56.464 0 102.4 45.936 102.4 102.4s-45.936 102.4-102.4 102.4z" data-tags="phone, telephone, call, contact" unicode=""/><glyph d="M921.6 625.003l-270.997 270.997c-9.65 9.65-22.507 14.965-36.203 14.965s-26.554-5.314-36.203-14.965l-14.997-14.997c-14.834-14.834-25.6-40.826-25.6-61.803v-51.2c0-7.288-5.45-20.446-10.603-25.6l-142.997-142.997c-5.152-5.154-18.312-10.603-25.6-10.603h-51.2c-20.978 0-46.97-10.766-61.803-25.6l-14.997-14.997c-19.963-19.963-19.963-52.443 0-72.406l79.534-79.534-253.426-329.453c-7.84-10.192-6.902-24.619 2.189-33.71 4.966-4.966 11.522-7.499 18.109-7.499 5.477 0 10.974 1.75 15.602 5.309l329.453 253.426 79.536-79.534c9.65-9.651 22.507-14.966 36.203-14.966s26.554 5.314 36.203 14.966l14.997 14.997c14.834 14.834 25.6 40.826 25.6 61.803v51.2c0 7.288 5.45 20.446 10.603 25.6l142.997 142.997c5.154 5.154 18.312 10.603 25.6 10.603h51.2c20.976 0 46.968 10.766 61.803 25.6l14.997 14.997c9.65 9.65 14.966 22.507 14.966 36.203s-5.317 26.554-14.966 36.203zM216.757 191.158l129.688 168.594 38.906-38.906-168.594-129.688zM870.4 573.803c-5.154-5.154-18.312-10.603-25.6-10.603h-51.2c-20.976 0-46.968-10.766-61.803-25.6l-142.997-142.997c-14.834-14.834-25.6-40.826-25.6-61.803v-51.2c0-7.288-5.45-20.446-10.603-25.6l-14.93-14.958c-0.006-0.003-0.032-0.008-0.067-0.008v-0.032l-270.997 270.998 14.998 14.998c5.152 5.154 18.312 10.603 25.6 10.603h51.2c20.978 0 46.97 10.766 61.803 25.6l142.995 142.995c14.834 14.834 25.6 40.826 25.6 61.803v51.2c0 7.288 5.45 20.446 10.603 25.6l14.997 14.997 270.997-270.997-14.997-14.997z" data-tags="pushpin, pin, location" unicode=""/><glyph d="M512-51.2c-7.856 0-15.277 3.606-20.13 9.784-2.931 3.73-72.587 92.864-143.229 224.51-41.581 77.491-74.742 153.568-98.565 226.118-30.043 91.499-45.277 177.758-45.277 256.387 0 169.39 137.81 307.2 307.2 307.2s307.2-137.81 307.2-307.2c0-78.629-15.234-164.888-45.278-256.386-23.822-72.55-56.984-148.629-98.565-226.118-70.64-131.646-140.298-220.781-143.229-224.51-4.851-6.179-12.272-9.786-20.128-9.786zM512 921.6c-141.158 0-256-114.842-256-256 0-166.597 74.914-341.176 137.758-458.296 46.186-86.074 92.634-154.306 118.237-189.938 25.709 35.789 72.429 104.432 118.688 190.76 62.643 116.902 137.317 291.163 137.317 457.474 0 141.158-114.84 256-256 256zM512 512c-84.696 0-153.6 68.904-153.6 153.6s68.904 153.6 153.6 153.6 153.6-68.904 153.6-153.6-68.904-153.6-153.6-153.6zM512 768c-56.464 0-102.4-45.936-102.4-102.4s45.936-102.4 102.4-102.4c56.464 0 102.4 45.936 102.4 102.4s-45.936 102.4-102.4 102.4z" data-tags="map-marker, pin, location" unicode=""/><glyph d="M960.659 917.776c-7.549 4.664-16.971 5.088-24.907 1.122l-295.752-147.875-295.752 147.875c-7.206 3.603-15.691 3.603-22.898 0l-307.2-153.6c-8.672-4.336-14.15-13.2-14.15-22.898v-768c0-8.872 4.594-17.112 12.141-21.776 4.11-2.541 8.779-3.824 13.461-3.824 3.912 0 7.834 0.898 11.446 2.702l295.752 147.875 295.752-147.875c7.206-3.603 15.693-3.603 22.899 0l307.2 153.6c8.674 4.336 14.152 13.2 14.152 22.898v768c-0.003 8.872-4.597 17.112-12.144 21.776zM307.2 143.822l-256-128v710.755l256 128v-710.755zM358.4 854.578l256-128v-710.757l-256 128v710.757zM921.6 143.822l-256-128v710.755l256 128v-710.755z" data-tags="map, guide, address" unicode=""/><glyph d="M435.202-51.202c-2.205 0-4.435 0.285-6.642 0.878-11.186 3.003-18.96 13.142-18.96 24.723v384h-384c-11.581 0-21.72 7.774-24.723 18.96-3.005 11.184 1.874 22.994 11.898 28.795l972.8 563.2c10.037 5.811 22.726 4.147 30.928-4.053 8.202-8.202 9.864-20.891 4.053-30.93l-563.2-972.8c-4.658-8.045-13.186-12.774-22.154-12.774zM120.912 409.6h314.288c14.138 0 25.6-11.461 25.6-25.6v-314.288l467.346 807.234-807.234-467.346z" data-tags="location, compass, direction" unicode=""/><glyph d="M947.2 870.4h-128v25.6c0 14.138-11.461 25.6-25.6 25.6s-25.6-11.462-25.6-25.6v-25.6h-512v25.6c0 14.138-11.462 25.6-25.6 25.6s-25.6-11.462-25.6-25.6v-25.6h-128c-42.347 0-76.8-34.453-76.8-76.8v-716.8c0-42.349 34.453-76.8 76.8-76.8h870.4c42.349 0 76.8 34.451 76.8 76.8v716.8c0 42.347-34.451 76.8-76.8 76.8zM76.8 819.2h128v-76.8c0-14.138 11.462-25.6 25.6-25.6s25.6 11.462 25.6 25.6v76.8h512v-76.8c0-14.138 11.461-25.6 25.6-25.6s25.6 11.462 25.6 25.6v76.8h128c14.115 0 25.6-11.485 25.6-25.6v-128h-921.6v128c0 14.115 11.485 25.6 25.6 25.6zM947.2 51.2h-870.4c-14.115 0-25.6 11.485-25.6 25.6v537.6h921.6v-537.6c0-14.115-11.485-25.6-25.6-25.6zM384 460.8h-51.2c-14.138 0-25.6 11.461-25.6 25.6s11.462 25.6 25.6 25.6h51.2c14.138 0 25.6-11.461 25.6-25.6s-11.462-25.6-25.6-25.6zM537.6 460.8h-51.2c-14.138 0-25.6 11.461-25.6 25.6s11.462 25.6 25.6 25.6h51.2c14.139 0 25.6-11.461 25.6-25.6s-11.461-25.6-25.6-25.6zM691.2 460.8h-51.2c-14.139 0-25.6 11.461-25.6 25.6s11.461 25.6 25.6 25.6h51.2c14.139 0 25.6-11.461 25.6-25.6s-11.461-25.6-25.6-25.6zM844.8 460.8h-51.2c-14.139 0-25.6 11.461-25.6 25.6s11.461 25.6 25.6 25.6h51.2c14.139 0 25.6-11.461 25.6-25.6s-11.461-25.6-25.6-25.6zM230.4 358.4h-51.2c-14.138 0-25.6 11.461-25.6 25.6s11.462 25.6 25.6 25.6h51.2c14.138 0 25.6-11.461 25.6-25.6s-11.462-25.6-25.6-25.6zM384 358.4h-51.2c-14.138 0-25.6 11.461-25.6 25.6s11.462 25.6 25.6 25.6h51.2c14.138 0 25.6-11.461 25.6-25.6s-11.462-25.6-25.6-25.6zM537.6 358.4h-51.2c-14.138 0-25.6 11.461-25.6 25.6s11.462 25.6 25.6 25.6h51.2c14.139 0 25.6-11.461 25.6-25.6s-11.461-25.6-25.6-25.6zM691.2 358.4h-51.2c-14.139 0-25.6 11.461-25.6 25.6s11.461 25.6 25.6 25.6h51.2c14.139 0 25.6-11.461 25.6-25.6s-11.461-25.6-25.6-25.6zM844.8 358.4h-51.2c-14.139 0-25.6 11.461-25.6 25.6s11.461 25.6 25.6 25.6h51.2c14.139 0 25.6-11.461 25.6-25.6s-11.461-25.6-25.6-25.6zM230.4 256h-51.2c-14.138 0-25.6 11.461-25.6 25.6s11.462 25.6 25.6 25.6h51.2c14.138 0 25.6-11.461 25.6-25.6s-11.462-25.6-25.6-25.6zM384 256h-51.2c-14.138 0-25.6 11.461-25.6 25.6s11.462 25.6 25.6 25.6h51.2c14.138 0 25.6-11.461 25.6-25.6s-11.462-25.6-25.6-25.6zM537.6 256h-51.2c-14.138 0-25.6 11.461-25.6 25.6s11.462 25.6 25.6 25.6h51.2c14.139 0 25.6-11.461 25.6-25.6s-11.461-25.6-25.6-25.6zM691.2 256h-51.2c-14.139 0-25.6 11.461-25.6 25.6s11.461 25.6 25.6 25.6h51.2c14.139 0 25.6-11.461 25.6-25.6s-11.461-25.6-25.6-25.6zM844.8 256h-51.2c-14.139 0-25.6 11.461-25.6 25.6s11.461 25.6 25.6 25.6h51.2c14.139 0 25.6-11.461 25.6-25.6s-11.461-25.6-25.6-25.6zM230.4 153.6h-51.2c-14.138 0-25.6 11.461-25.6 25.6s11.462 25.6 25.6 25.6h51.2c14.138 0 25.6-11.461 25.6-25.6s-11.462-25.6-25.6-25.6zM384 153.6h-51.2c-14.138 0-25.6 11.461-25.6 25.6s11.462 25.6 25.6 25.6h51.2c14.138 0 25.6-11.461 25.6-25.6s-11.462-25.6-25.6-25.6zM537.6 153.6h-51.2c-14.138 0-25.6 11.461-25.6 25.6s11.462 25.6 25.6 25.6h51.2c14.139 0 25.6-11.461 25.6-25.6s-11.461-25.6-25.6-25.6zM691.2 153.6h-51.2c-14.139 0-25.6 11.461-25.6 25.6s11.461 25.6 25.6 25.6h51.2c14.139 0 25.6-11.461 25.6-25.6s-11.461-25.6-25.6-25.6zM844.8 153.6h-51.2c-14.139 0-25.6 11.461-25.6 25.6s11.461 25.6 25.6 25.6h51.2c14.139 0 25.6-11.461 25.6-25.6s-11.461-25.6-25.6-25.6z" data-tags="calendar-full, calendar, date, schedule" unicode=""/><glyph d="M896 153.6h-819.2c-42.347 0-76.8 34.451-76.8 76.8v409.6c0 42.347 34.453 76.8 76.8 76.8h819.2c42.349 0 76.8-34.453 76.8-76.8v-409.6c0-42.349-34.451-76.8-76.8-76.8zM76.8 665.6c-14.115 0-25.6-11.485-25.6-25.6v-409.6c0-14.115 11.485-25.6 25.6-25.6h819.2c14.115 0 25.6 11.485 25.6 25.6v409.6c0 14.115-11.485 25.6-25.6 25.6h-819.2zM179.2 563.2h-51.2c-14.138 0-25.6 11.461-25.6 25.6s11.462 25.6 25.6 25.6h51.2c14.138 0 25.6-11.461 25.6-25.6s-11.462-25.6-25.6-25.6zM844.8 563.2h-51.2c-14.139 0-25.6 11.461-25.6 25.6s11.461 25.6 25.6 25.6h51.2c14.139 0 25.6-11.461 25.6-25.6s-11.461-25.6-25.6-25.6zM230.4 460.8h-102.4c-14.138 0-25.6 11.461-25.6 25.6s11.462 25.6 25.6 25.6h102.4c14.138 0 25.6-11.461 25.6-25.6s-11.462-25.6-25.6-25.6zM179.2 256h-51.2c-14.138 0-25.6 11.461-25.6 25.6s11.462 25.6 25.6 25.6h51.2c14.138 0 25.6-11.461 25.6-25.6s-11.462-25.6-25.6-25.6zM588.8 256h-307.2c-14.138 0-25.6 11.461-25.6 25.6s11.462 25.6 25.6 25.6h307.2c14.139 0 25.6-11.461 25.6-25.6s-11.461-25.6-25.6-25.6zM742.4 256h-51.2c-14.139 0-25.6 11.461-25.6 25.6s11.461 25.6 25.6 25.6h51.2c14.139 0 25.6-11.461 25.6-25.6s-11.461-25.6-25.6-25.6zM844.8 358.4h-153.6c-14.139 0-25.6 11.461-25.6 25.6s11.461 25.6 25.6 25.6h128v76.8c0 14.139 11.461 25.6 25.6 25.6s25.6-11.461 25.6-25.6v-102.4c0-14.139-11.461-25.6-25.6-25.6zM281.6 358.4h-153.6c-14.138 0-25.6 11.461-25.6 25.6s11.462 25.6 25.6 25.6h153.6c14.138 0 25.6-11.461 25.6-25.6s-11.462-25.6-25.6-25.6zM307.2 588.8c0-14.138-11.462-25.6-25.6-25.6s-25.6 11.462-25.6 25.6c0 14.138 11.462 25.6 25.6 25.6s25.6-11.462 25.6-25.6zM409.6 588.8c0-14.138-11.462-25.6-25.6-25.6s-25.6 11.462-25.6 25.6c0 14.138 11.462 25.6 25.6 25.6s25.6-11.462 25.6-25.6zM512 588.8c0-14.138-11.462-25.6-25.6-25.6s-25.6 11.462-25.6 25.6c0 14.138 11.462 25.6 25.6 25.6s25.6-11.462 25.6-25.6zM614.4 588.8c0-14.138-11.462-25.6-25.6-25.6s-25.6 11.462-25.6 25.6c0 14.138 11.462 25.6 25.6 25.6s25.6-11.462 25.6-25.6zM716.8 588.8c0-14.138-11.462-25.6-25.6-25.6s-25.6 11.462-25.6 25.6c0 14.138 11.462 25.6 25.6 25.6s25.6-11.462 25.6-25.6zM358.4 486.4c0-14.138-11.462-25.6-25.6-25.6s-25.6 11.462-25.6 25.6c0 14.138 11.462 25.6 25.6 25.6s25.6-11.462 25.6-25.6zM460.8 486.4c0-14.138-11.462-25.6-25.6-25.6s-25.6 11.462-25.6 25.6c0 14.138 11.462 25.6 25.6 25.6s25.6-11.462 25.6-25.6zM563.2 486.4c0-14.138-11.462-25.6-25.6-25.6s-25.6 11.462-25.6 25.6c0 14.138 11.462 25.6 25.6 25.6s25.6-11.462 25.6-25.6zM665.6 486.4c0-14.138-11.462-25.6-25.6-25.6s-25.6 11.462-25.6 25.6c0 14.138 11.462 25.6 25.6 25.6s25.6-11.462 25.6-25.6zM768 486.4c0-14.138-11.462-25.6-25.6-25.6s-25.6 11.462-25.6 25.6c0 14.138 11.462 25.6 25.6 25.6s25.6-11.462 25.6-25.6zM409.6 384c0-14.138-11.462-25.6-25.6-25.6s-25.6 11.462-25.6 25.6c0 14.138 11.462 25.6 25.6 25.6s25.6-11.462 25.6-25.6zM512 384c0-14.138-11.462-25.6-25.6-25.6s-25.6 11.462-25.6 25.6c0 14.138 11.462 25.6 25.6 25.6s25.6-11.462 25.6-25.6zM614.4 384c0-14.138-11.462-25.6-25.6-25.6s-25.6 11.462-25.6 25.6c0 14.138 11.462 25.6 25.6 25.6s25.6-11.462 25.6-25.6z" data-tags="keyboard, type, typing" unicode=""/><glyph d="M230.4 256c-14.138 0-25.6-11.461-25.6-25.6v-0.070c-21.408 16.107-48.006 25.67-76.8 25.67-70.579 0-128-57.421-128-128s57.421-128 128-128c28.794 0 55.392 9.563 76.8 25.67v-0.070c0-14.139 11.462-25.6 25.6-25.6s25.6 11.461 25.6 25.6v204.8c0 14.139-11.462 25.6-25.6 25.6zM128 51.2c-42.347 0-76.8 34.453-76.8 76.8s34.453 76.8 76.8 76.8 76.8-34.453 76.8-76.8-34.453-76.8-76.8-76.8zM435.2 256c-28.794 0-55.392-9.563-76.8-25.67v204.87c0 14.139-11.462 25.6-25.6 25.6s-25.6-11.461-25.6-25.6v-409.6c0-14.139 11.462-25.6 25.6-25.6s25.6 11.461 25.6 25.6v0.070c21.408-16.107 48.006-25.67 76.8-25.67 70.579 0 128 57.421 128 128s-57.421 128-128 128zM435.2 51.2c-42.347 0-76.8 34.453-76.8 76.8s34.453 76.8 76.8 76.8 76.8-34.453 76.8-76.8-34.453-76.8-76.8-76.8zM742.4 0c-70.579 0-128 57.421-128 128s57.421 128 128 128c22.496 0 44.632-5.925 64.014-17.136 12.238-7.080 16.422-22.739 9.344-34.978-7.082-12.24-22.744-16.421-34.978-9.344-11.603 6.71-24.875 10.258-38.381 10.258-42.347 0-76.8-34.453-76.8-76.8s34.453-76.8 76.8-76.8c13.509 0 26.782 3.547 38.382 10.258 12.235 7.078 27.898 2.899 34.978-9.341 7.080-12.237 2.899-27.899-9.341-34.978-19.382-11.213-41.52-17.139-64.019-17.139zM588.8 435.2c-6.552 0-13.102 2.499-18.101 7.499l-153.6 153.6c-9.997 9.998-9.997 26.206 0 36.205 9.998 9.997 26.206 9.997 36.205 0l135.496-135.499 340.299 340.298c9.997 9.997 26.206 9.997 36.203 0 9.998-9.998 9.998-26.206 0-36.205l-358.4-358.4c-5-4.998-11.55-7.498-18.102-7.498z" data-tags="spell-check, spelling" unicode=""/><glyph d="M896 870.4h-819.2c-42.347 0-76.8-34.453-76.8-76.8v-512c0-42.349 34.453-76.8 76.8-76.8h384v-102.4h-179.2c-14.138 0-25.6-11.461-25.6-25.6s11.462-25.6 25.6-25.6h409.6c14.139 0 25.6 11.461 25.6 25.6s-11.461 25.6-25.6 25.6h-179.2v102.4h384c42.349 0 76.8 34.451 76.8 76.8v512c0 42.347-34.451 76.8-76.8 76.8zM921.6 281.6c0-14.115-11.485-25.6-25.6-25.6h-819.2c-14.115 0-25.6 11.485-25.6 25.6v512c0 14.115 11.485 25.6 25.6 25.6h819.2c14.115 0 25.6-11.485 25.6-25.6v-512z" data-tags="screen, monitor" unicode=""/><glyph d="M537.6 51.2h-51.2c-14.138 0-25.6 11.461-25.6 25.6s11.462 25.6 25.6 25.6h51.2c14.139 0 25.6-11.461 25.6-25.6s-11.461-25.6-25.6-25.6zM742.4-51.2h-460.8c-42.347 0-76.8 34.451-76.8 76.8v870.4c0 42.347 34.453 76.8 76.8 76.8h460.8c42.349 0 76.8-34.453 76.8-76.8v-870.4c0-42.349-34.451-76.8-76.8-76.8zM281.6 921.6c-14.115 0-25.6-11.485-25.6-25.6v-870.4c0-14.115 11.485-25.6 25.6-25.6h460.8c14.115 0 25.6 11.485 25.6 25.6v870.4c0 14.115-11.485 25.6-25.6 25.6h-460.8zM691.2 153.6h-358.4c-14.138 0-25.6 11.461-25.6 25.6v665.6c0 14.138 11.462 25.6 25.6 25.6h358.4c14.139 0 25.6-11.462 25.6-25.6v-665.6c0-14.139-11.461-25.6-25.6-25.6zM358.4 204.8h307.2v614.4h-307.2v-614.4z" data-tags="smartphone, mobile, phone, cellular" unicode=""/><glyph d="M844.8-51.2h-665.6c-42.347 0-76.8 34.451-76.8 76.8v870.4c0 42.347 34.453 76.8 76.8 76.8h665.6c42.349 0 76.8-34.453 76.8-76.8v-870.4c0-42.349-34.451-76.8-76.8-76.8zM179.2 921.6c-14.115 0-25.6-11.485-25.6-25.6v-870.4c0-14.115 11.485-25.6 25.6-25.6h665.6c14.115 0 25.6 11.485 25.6 25.6v870.4c0 14.115-11.485 25.6-25.6 25.6h-665.6zM537.6 51.2h-51.2c-14.138 0-25.6 11.461-25.6 25.6s11.462 25.6 25.6 25.6h51.2c14.139 0 25.6-11.461 25.6-25.6s-11.461-25.6-25.6-25.6zM793.6 153.6h-563.2c-14.138 0-25.6 11.461-25.6 25.6v665.6c0 14.138 11.462 25.6 25.6 25.6h563.2c14.139 0 25.6-11.462 25.6-25.6v-665.6c0-14.139-11.461-25.6-25.6-25.6zM256 204.8h512v614.4h-512v-614.4z" data-tags="tablet, mobile" unicode=""/><glyph d="M179.2 256h665.6c42.349 0 76.8 34.451 76.8 76.8v409.6c0 42.347-34.451 76.8-76.8 76.8h-665.6c-42.347 0-76.8-34.453-76.8-76.8v-409.6c0-42.349 34.453-76.8 76.8-76.8zM153.6 742.4c0 14.115 11.485 25.6 25.6 25.6h665.6c14.115 0 25.6-11.485 25.6-25.6v-409.6c0-14.115-11.485-25.6-25.6-25.6h-665.6c-14.115 0-25.6 11.485-25.6 25.6v409.6zM998.4 204.8h-972.8c-14.138 0-25.6-11.461-25.6-25.6v-51.2c0-42.349 34.453-76.8 76.8-76.8h870.4c42.349 0 76.8 34.451 76.8 76.8v51.2c0 14.139-11.461 25.6-25.6 25.6zM947.2 102.4h-870.4c-14.115 0-25.6 11.485-25.6 25.6v25.6h921.6v-25.6c0-14.115-11.485-25.6-25.6-25.6z" data-tags="laptop, computer, pc" unicode=""/><glyph d="M588.8 256h-409.6c-42.347 0-76.8 34.451-76.8 76.8v409.6c0 42.347 34.453 76.8 76.8 76.8h665.6c42.349 0 76.8-34.453 76.8-76.8v-51.2c0-14.138-11.461-25.6-25.6-25.6s-25.6 11.462-25.6 25.6v51.2c0 14.115-11.485 25.6-25.6 25.6h-665.6c-14.115 0-25.6-11.485-25.6-25.6v-409.6c0-14.115 11.485-25.6 25.6-25.6h409.6c14.139 0 25.6-11.461 25.6-25.6s-11.461-25.6-25.6-25.6zM588.8 51.2h-512c-42.347 0-76.8 34.453-76.8 76.8v51.2c0 14.139 11.462 25.6 25.6 25.6h563.2c14.139 0 25.6-11.461 25.6-25.6s-11.461-25.6-25.6-25.6h-537.6v-25.6c0-14.115 11.485-25.6 25.6-25.6h512c14.139 0 25.6-11.461 25.6-25.6s-11.461-25.6-25.6-25.6zM947.2 51.2h-204.8c-42.347 0-76.8 34.453-76.8 76.8v409.6c0 42.347 34.453 76.8 76.8 76.8h204.8c42.347 0 76.8-34.453 76.8-76.8v-409.6c0-42.347-34.453-76.8-76.8-76.8zM742.4 563.2c-14.115 0-25.6-11.485-25.6-25.6v-409.6c0-14.115 11.485-25.6 25.6-25.6h204.8c14.115 0 25.6 11.485 25.6 25.6v409.6c0 14.115-11.485 25.6-25.6 25.6h-204.8zM844.8 153.6c-6.736 0-13.328 2.736-18.098 7.504-4.766 4.768-7.502 11.36-7.502 18.096s2.736 13.344 7.502 18.098c4.754 4.766 11.362 7.502 18.098 7.502s13.344-2.736 18.096-7.502c4.768-4.754 7.504-11.346 7.504-18.098 0-6.736-2.736-13.344-7.504-18.096-4.768-4.768-11.36-7.504-18.096-7.504z" data-tags="laptop-phone, devices, responsive" unicode=""/><glyph d="M486.4 358.4c-14.138 0-25.6 11.461-25.6 25.6v460.8c0 14.138 11.462 25.6 25.6 25.6s25.6-11.462 25.6-25.6v-460.8c0-14.139-11.462-25.6-25.6-25.6zM486.4 0c-102.57 0-199 39.944-271.53 112.47-72.528 72.528-112.47 168.96-112.47 271.53 0 84.395 26.859 164.478 77.674 231.594 49.15 64.915 118.979 113.394 196.624 136.501 13.55 4.034 27.805-3.683 31.838-17.234s-3.683-27.805-17.234-31.838c-139.955-41.654-237.702-172.84-237.702-319.022 0-183.506 149.294-332.8 332.8-332.8s332.8 149.294 332.8 332.8c0 146.187-97.75 277.374-237.71 319.024-13.552 4.034-21.267 18.288-17.234 31.838 4.032 13.552 18.29 21.267 31.837 17.235 77.646-23.106 147.48-71.582 196.632-136.499 50.816-67.115 77.675-147.202 77.675-231.598 0-102.57-39.942-199.002-112.47-271.53-72.528-72.526-168.96-112.47-271.53-112.47z" data-tags="power-switch, toggle" unicode=""/><glyph d="M25.6 0c-11.507 0-21.6 7.677-24.67 18.766s1.634 22.864 11.501 28.784c86.57 51.942 122.485 127.414 135.218 162.755-94.088 72.048-147.648 171.746-147.648 276.094 0 52.704 13.23 103.755 39.323 151.736 24.902 45.794 60.406 86.806 105.526 121.899 91.504 71.17 212.802 110.365 341.55 110.365s250.046-39.195 341.552-110.366c45.118-35.093 80.624-76.104 105.526-121.899 26.091-47.979 39.322-99.030 39.322-151.734 0-52.702-13.23-103.755-39.322-151.736-24.902-45.794-60.408-86.806-105.526-121.899-91.506-71.17-212.803-110.365-341.552-110.365-52.907 0-104.8 6.627-154.437 19.707-21.974-14.637-63.040-40.605-112.086-65.005-76.163-37.89-141.528-57.102-194.277-57.102zM486.4 819.2c-239.97 0-435.2-149.294-435.2-332.8 0-92.946 51.432-182.379 141.107-245.368 8.797-6.178 12.795-17.194 10.013-27.576-5.984-22.325-26.363-83.597-80.878-142.734 66.659 23.341 138.424 63.832 191.434 100.286 6.296 4.328 14.197 5.621 21.544 3.52 48.558-13.888 99.691-20.928 151.981-20.928 239.97 0 435.2 149.294 435.2 332.8s-195.23 332.8-435.2 332.8z" data-tags="bubble, chat, comment" unicode=""/><glyph d="M486.4 0c-4.283 0-8.566 1.074-12.432 3.222-5.954 3.307-147.285 82.464-274.914 208.987-10.040 9.954-10.11 26.163-0.157 36.203s26.163 10.11 36.203 0.157c101.349-100.472 214.307-171.323 251.293-193.35 37 22.054 150.123 93.045 251.304 193.352 10.042 9.952 26.248 9.882 36.205-0.158 9.954-10.040 9.883-26.25-0.158-36.205-127.629-126.52-268.958-205.678-274.912-208.986-3.866-2.149-8.149-3.222-12.432-3.222zM65.478 409.584c-9.61 0-18.821 5.437-23.182 14.709-28.066 59.659-42.296 119.314-42.296 177.307 0 148.218 120.582 268.8 268.8 268.8 50.173 0 103.461-18.805 150.051-52.952 27.251-19.973 50.442-44.043 67.549-69.606 17.107 25.565 40.299 49.634 67.55 69.606 46.589 34.147 99.878 52.952 150.050 52.952 148.218 0 268.8-120.582 268.8-268.8 0-57.992-14.23-117.645-42.294-177.301-6.018-12.794-21.267-18.29-34.061-12.267-12.794 6.018-18.286 21.267-12.269 34.061 24.834 52.786 37.424 105.107 37.424 155.507 0 119.986-97.616 217.6-217.6 217.6-87.187 0-171.856-71.725-193.314-136.096-3.485-10.453-13.267-17.504-24.286-17.504s-20.802 7.051-24.286 17.504c-21.456 64.371-106.125 136.096-193.314 136.096-119.986 0-217.6-97.614-217.6-217.6 0-50.4 12.592-102.723 37.426-155.512 6.019-12.794 0.526-28.043-12.267-34.061-3.522-1.659-7.23-2.443-10.88-2.443zM538.346 204.776c-0.232 0-0.456 0.002-0.678 0.006-10.35 0.218-29.122 5.598-38.552 39.194l-62.291 221.915-41.328-167.894c-8.106-32.933-26.902-39.813-37.387-40.982-10.483-1.173-30.334 1.397-45.504 31.733l-31.005 62.010c-1.475 2.952-2.85 4.834-3.893 6-0.171-0.229-0.355-0.483-0.546-0.765-18.939-27.816-61.053-48.792-97.962-48.792h-51.2c-14.138 0-25.6 11.461-25.6 25.6s11.462 25.6 25.6 25.6h51.2c21.554 0 47.152 13.942 55.638 26.408 11.397 16.739 28.026 25.638 45.629 24.48 19.142-1.286 36.246-14.274 46.928-35.634l22.781-45.562 47.93 194.71c8.069 32.784 24.658 39.907 37.15 40.109 12.512 0.24 29.302-6.379 38.43-38.888l65.763-234.286 60.323 184.738c10.504 32.168 29.779 37.707 40.334 38.144 10.542 0.435 30.224-3.482 43.357-34.672l37.062-88.026c6.946-16.496 29.573-31.522 47.474-31.522h76.8c14.139 0 25.6-11.461 25.6-25.6s-11.461-25.6-25.6-25.6h-76.8c-38.24 0-79.822 27.608-94.662 62.853l-30.301 71.968-65.208-199.699c-10.598-32.454-29-37.546-39.483-37.546z" data-tags="heart-pulse, health, heart-rate" unicode=""/><glyph d="M1024 716.808v76.792c0 14.138-11.461 25.6-25.6 25.6h-179.192c-0.005 0-0.011 0-0.016 0h-255.984c-0.005 0-0.011 0-0.016 0h-255.984c-0.005 0-0.011 0-0.016 0h-281.592c-14.138 0-25.6-11.462-25.6-25.6v-307.2c0-14.139 11.462-25.6 25.6-25.6h76.8v-307.2h-25.6c-14.138 0-25.6-11.461-25.6-25.6s11.462-25.6 25.6-25.6h204.8c14.138 0 25.6 11.461 25.6 25.6s-11.462 25.6-25.6 25.6h-25.6v153.6h512v-153.6h-25.6c-14.139 0-25.6-11.461-25.6-25.6s11.461-25.6 25.6-25.6h204.8c14.139 0 25.6 11.461 25.6 25.6s-11.461 25.6-25.6 25.6h-25.6v307.2h76.8c14.139 0 25.6 11.461 25.6 25.6v230.392c0 0.005 0 0.011 0 0.016zM972.8 727.403l-215.403-215.403h-183.594l256 256h142.997v-40.597zM317.803 512l256 256h183.594l-256-256h-183.594zM61.803 512l256 256h183.594l-256-256h-183.594zM245.397 768l-194.197-194.197v194.197h194.197zM153.6 153.6v307.2h51.2v-307.2h-51.2zM256 358.4v102.4h512v-102.4h-512zM870.4 153.6h-51.2v307.2h51.2v-307.2zM829.803 512l142.997 142.997v-142.997h-142.997z" data-tags="construction, road-sign" unicode=""/><glyph d="M435.2-51.2c-116.246 0-225.534 45.269-307.733 127.467s-127.467 191.488-127.467 307.733c0 116.246 45.269 225.534 127.467 307.733s191.486 127.467 307.733 127.467c14.138 0 25.6-11.462 25.6-25.6v-384h384c14.139 0 25.6-11.461 25.6-25.6 0-116.245-45.269-225.534-127.467-307.733s-191.488-127.467-307.733-127.467zM409.6 767.157c-199.842-13.226-358.4-180.026-358.4-383.157 0-211.739 172.262-384 384-384 203.131 0 369.931 158.558 383.157 358.4h-383.157c-14.138 0-25.6 11.461-25.6 25.6v383.157zM947.2 460.8h-409.6c-14.139 0-25.6 11.462-25.6 25.6v409.6c0 14.138 11.461 25.6 25.6 25.6 116.245 0 225.534-45.269 307.733-127.467s127.467-191.486 127.467-307.733c0-14.138-11.461-25.6-25.6-25.6zM563.2 512h357.557c-12.664 191.374-166.184 344.891-357.557 357.557v-357.557z" data-tags="pie-chart, chart, statistics" unicode=""/><glyph d="M896-51.2h-819.2c-42.347 0-76.8 34.451-76.8 76.8v819.2c0 42.347 34.453 76.8 76.8 76.8h819.2c42.349 0 76.8-34.453 76.8-76.8v-819.2c0-42.349-34.451-76.8-76.8-76.8zM76.8 870.4c-14.115 0-25.6-11.485-25.6-25.6v-819.2c0-14.115 11.485-25.6 25.6-25.6h819.2c14.115 0 25.6 11.485 25.6 25.6v819.2c0 14.115-11.485 25.6-25.6 25.6h-819.2zM332.8 102.4h-102.4c-14.138 0-25.6 11.461-25.6 25.6v460.8c0 14.138 11.462 25.6 25.6 25.6h102.4c14.138 0 25.6-11.462 25.6-25.6v-460.8c0-14.139-11.462-25.6-25.6-25.6zM256 153.6h51.2v409.6h-51.2v-409.6zM537.6 102.4h-102.4c-14.138 0-25.6 11.461-25.6 25.6v614.4c0 14.138 11.462 25.6 25.6 25.6h102.4c14.139 0 25.6-11.462 25.6-25.6v-614.4c0-14.139-11.461-25.6-25.6-25.6zM460.8 153.6h51.2v563.2h-51.2v-563.2zM742.4 102.4h-102.4c-14.139 0-25.6 11.461-25.6 25.6v256c0 14.139 11.461 25.6 25.6 25.6h102.4c14.139 0 25.6-11.461 25.6-25.6v-256c0-14.139-11.461-25.6-25.6-25.6zM665.6 153.6h51.2v204.8h-51.2v-204.8z" data-tags="chart-bars, chart, statistics" unicode=""/><glyph d="M947.2 716.8h-153.67c16.107 21.408 25.67 48.006 25.67 76.8 0 70.579-57.421 128-128 128-71.181 0-130.869-56.381-160.112-89.987-17.707-20.35-32.954-42.136-44.686-63.208-11.733 21.070-26.981 42.858-44.688 63.208-29.245 33.606-88.931 89.987-160.114 89.987-70.579 0-128-57.421-128-128 0-28.794 9.563-55.392 25.669-76.8h-153.669c-14.138 0-25.6-11.462-25.6-25.6v-153.6c0-14.138 11.462-25.6 25.6-25.6h25.6v-486.4c0-42.349 34.453-76.8 76.8-76.8h716.8c42.349 0 76.8 34.451 76.8 76.8v486.4h25.6c14.139 0 25.6 11.462 25.6 25.6v153.6c0 14.138-11.461 25.6-25.6 25.6zM569.712 798.003c40.035 46.010 84.317 72.397 121.488 72.397 42.349 0 76.8-34.453 76.8-76.8s-34.451-76.8-76.8-76.8h-172.946c8.854 22.621 26.758 52.818 51.458 81.203zM563.2 0h-153.6v665.6h153.6v-665.6zM204.8 793.6c0 42.347 34.453 76.8 76.8 76.8 37.173 0 81.453-26.387 121.488-72.397 24.699-28.386 42.603-58.582 51.458-81.203h-172.946c-42.347 0-76.8 34.453-76.8 76.8zM51.2 665.6h307.2v-102.4h-307.2v102.4zM102.4 25.6v486.4h256v-512h-230.4c-14.115 0-25.6 11.485-25.6 25.6zM870.4 25.6c0-14.115-11.485-25.6-25.6-25.6h-230.4v512h256v-486.4zM921.6 563.2h-307.2v102.4h307.2v-102.4z" data-tags="gift, birthday, prize, box" unicode=""/><glyph d="M967.68 604.16l-153.6 204.8c-3.95 5.267-9.776 8.81-16.272 9.891l-307.2 51.2c-2.786 0.464-5.632 0.464-8.418 0l-307.2-51.2c-6.494-1.082-12.322-4.626-16.27-9.891l-153.6-204.8c-7.339-9.786-6.731-23.395 1.451-32.486l460.8-512c4.856-5.394 11.771-8.474 19.029-8.474s14.173 3.080 19.029 8.475l460.8 512c8.182 9.091 8.79 22.699 1.451 32.485zM654.65 614.4l-168.25-462.691-168.251 462.691h336.501zM343.405 665.6l142.995 142.995 142.995-142.995h-285.99zM560.989 806.416l189.349-31.558-63.115-94.674-126.234 126.232zM285.579 680.184l-63.117 94.674 189.349 31.558-126.232-126.232zM239.096 657.606l-152.813-30.563 91.688 122.25 61.125-91.686zM265.058 610.584l152.285-418.784-342.642 380.712 190.357 38.072zM707.744 610.584l190.357-38.072-342.643-380.712 152.286 418.784zM733.704 657.606l61.125 91.688 91.688-122.25-152.813 30.562z" data-tags="diamond, jewelry" unicode=""/><glyph d="M998.4 153.6h-25.6c-29.667 0-51.2-32.299-51.2-76.8 0-14.115-11.485-25.6-25.6-25.6s-25.6 11.485-25.6 25.6v51.2c0 14.139-11.461 25.6-25.6 25.6-7.074 0-13.475-2.869-18.109-7.504-10.027 4.806-21.248 7.504-33.091 7.504-42.349 0-76.8-34.451-76.8-76.8 0-8.974 1.563-17.587 4.403-25.6h-55.603c-20.762 0-52.194 14.162-65.949 29.71l-53.472 60.445 471.395 532.882c8.221 9.294 8.459 22.888 1.238 32.41l-153.533 204.714c-4.834 6.446-12.422 10.24-20.48 10.24h-665.6c-8.058 0-15.645-3.794-20.48-10.24l-153.539-204.718c-7.216-9.522-6.974-23.112 1.245-32.403l471.395-532.882-53.472-60.446c-14.802-16.733-40.723-29.71-53.149-29.71h-12.8v25.6c0 42.349-34.453 76.8-76.8 76.8-14.413 0-27.906-3.998-39.442-10.931-6.52 6.925-14.97 10.931-24.558 10.931-15.762 0-27.496-12.459-35.957-23.314-7.773-9.97-15.813-22.981-22.638-36.634l-5.405-10.81v45.157c0 14.139-11.462 25.6-25.6 25.6s-25.6-11.461-25.6-25.6v-51.2c0-14.115-11.485-25.6-25.6-25.6s-25.6 11.485-25.6 25.6v153.6c0 14.139-11.462 25.6-25.6 25.6s-25.6-11.461-25.6-25.6v-153.6c0-42.347 34.453-76.8 76.8-76.8 14.413 0 27.906 3.998 39.442 10.933 6.518-6.926 14.97-10.933 24.558-10.933 15.762 0 27.496 12.459 35.957 23.314 7.773 9.97 15.813 22.981 22.638 36.634l5.405 10.81v-45.157c0-14.139 11.462-25.6 25.6-25.6s25.6 11.461 25.6 25.6v51.2c0 14.115 11.485 25.6 25.6 25.6s25.6-11.485 25.6-25.6v-51.2c0-14.139 11.462-25.6 25.6-25.6h38.4c28.467 0 67.803 20.2 91.498 46.986l49.302 55.733 49.301-55.731c23.696-26.787 68.534-46.987 104.299-46.987h128c19.654 0 37.602 7.43 51.2 19.618 13.598-12.187 31.546-19.618 51.2-19.618 42.349 0 76.8 34.451 76.8 76.8 0 12.749 3.099 21.594 5.278 25.6h20.322c14.139 0 25.6 11.461 25.6 25.6s-11.461 25.6-25.6 25.6zM58.6 692.533l133.4 177.867h640l133.4-177.867-453.4-512.539-453.4 512.539zM793.6 51.2c-14.115 0-25.6 11.485-25.6 25.6s11.485 25.6 25.6 25.6 25.6-11.485 25.6-25.6-11.485-25.6-25.6-25.6zM128 204.8c6.736 0 13.344 2.736 18.096 7.504 4.768 4.768 7.504 11.36 7.504 18.096s-2.736 13.328-7.504 18.098c-4.752 4.766-11.36 7.502-18.096 7.502s-13.328-2.736-18.096-7.502c-4.768-4.754-7.504-11.362-7.504-18.098s2.736-13.344 7.504-18.096c4.768-4.768 11.36-7.504 18.096-7.504z" data-tags="linearicons, perxis, diamond" unicode=""/><glyph d="M409.6 947.2c0 14.138-11.462 25.6-25.6 25.6s-25.6-11.462-25.6-25.6c0-66.843 12.915-122.715 23.293-167.608 10.112-43.749 18.099-78.302 6.637-92.718-9.525-11.978-36.712-18.942-80.938-20.778-0.114 8.314-0.189 16.669-0.19 25.109v204.795c0 14.138-11.462 25.6-25.6 25.6s-25.6-11.462-25.6-25.6v-204.803c0.002-8.426-0.072-16.768-0.182-25.069-44.099 1.898-71.219 8.901-80.76 20.893-11.52 14.477-3.542 49.086 6.557 92.902 10.328 44.818 23.184 100.594 23.184 167.277 0 14.138-11.462 25.6-25.6 25.6s-25.6-11.462-25.6-25.6c0-60.859-12.131-113.488-21.878-155.776-13.198-57.259-23.622-102.485 3.27-136.283 19.97-25.096 56.374-37.542 119.458-40.192-5.741-142.84-26.443-265.747-43.589-367.451-22.816-135.354-37.888-224.77 0.605-270.298 15.934-18.845 39.531-28.4 70.134-28.4 30.608 0 54.208 9.558 70.147 28.406 38.52 45.554 23.438 135.051 0.611 270.526-17.126 101.638-37.808 224.466-43.584 367.184 63.213 2.57 99.656 14.973 119.629 40.090 26.837 33.747 16.395 78.923 3.173 136.117-9.79 42.358-21.976 95.074-21.976 156.077zM312.651 10.266c-3.726-4.406-11-10.266-31.051-10.266-20.045 0-27.312 5.854-31.035 10.258-23.154 27.384-7.426 120.69 10.786 228.728 6.581 39.038 13.68 81.157 20.28 126.326 6.589-45.082 13.672-87.115 20.238-126.090 18.224-108.144 33.962-201.544 10.782-228.957zM813.158 247.731c-20.104 119.326-45.13 267.832-45.158 443.472v255.997c0 11.608-7.811 21.763-19.032 24.742-11.218 2.979-23.035-1.963-28.795-12.042-103.387-180.926-154.437-457.246-156.562-468.922-1.358-7.469 0.667-15.155 5.533-20.982 4.866-5.829 12.064-9.197 19.654-9.197h114.443c-8.957-79.045-20.954-150.25-31.581-213.302-22.819-135.354-37.891-224.77 0.605-270.298 15.936-18.845 39.531-28.4 70.134-28.4 30.608 0 54.208 9.558 70.147 28.406 38.518 45.554 23.437 135.051 0.611 270.525zM620.062 512c12.688 59.962 45.166 198.998 96.738 323.424v-144.227c0.010-63.296-3.242-123.046-8.334-179.197h-88.403zM773.451 10.266c-3.726-4.406-11-10.266-31.051-10.266-20.043 0-27.312 5.854-31.034 10.258-23.157 27.384-7.429 120.691 10.784 228.73 6.581 39.038 13.68 81.155 20.28 126.326 6.589-45.083 13.674-87.118 20.238-126.093 18.224-108.144 33.963-201.542 10.782-228.955z" data-tags="dinner, food, fork, knife" unicode=""/><glyph d="M512 204.8c-84.696 0-153.6 68.904-153.6 153.6s68.904 153.6 153.6 153.6 153.6-68.904 153.6-153.6-68.904-153.6-153.6-153.6zM512 460.8c-56.464 0-102.4-45.936-102.4-102.4s45.936-102.4 102.4-102.4c56.464 0 102.4 45.936 102.4 102.4s-45.936 102.4-102.4 102.4zM814.302 867.542l-9.050 36.195c-9.682 38.726-48.534 69.062-88.453 69.062h-409.6c-39.918 0-78.771-30.336-88.454-69.062l-9.048-36.195c-32.32-9.062-56.098-38.768-56.098-73.942v-51.2c0-33.925 22.118-62.762 52.685-72.899l46.133-645.853c2.947-41.272 39.008-74.848 80.382-74.848h358.4c41.376 0 77.435 33.576 80.382 74.846l46.131 645.853c30.568 10.139 52.686 38.976 52.686 72.901v51.2c0 35.174-23.778 64.88-56.098 73.942zM307.2 921.6h409.6c16.334 0 34.821-14.434 38.781-30.28l5.23-20.92h-497.622l5.23 20.92c3.96 15.846 22.446 30.28 38.781 30.28zM762.45 614.4h-500.898l-3.658 51.2h508.213l-3.658-51.2zM729.536 153.6h-435.070l-29.258 409.6h493.584l-29.256-409.6zM691.2 0h-358.4c-14.834 0-28.256 12.499-29.312 27.294l-5.365 75.106h427.755l-5.365-75.106c-1.058-14.795-14.48-27.294-29.314-27.294zM819.2 742.4c0-14.115-11.485-25.6-25.6-25.6h-563.2c-14.115 0-25.6 11.485-25.6 25.6v51.2c0 14.093 11.446 25.558 25.531 25.597 0.030 0 0.059-0.003 0.090-0.003 0.050 0 0.099 0.006 0.149 0.006h563.030c14.115 0 25.6-11.485 25.6-25.6v-51.2z" data-tags="coffee-cup, drink, coffee" unicode=""/><glyph d="M1017.987 963.683c-4.862 5.779-12.030 9.115-19.582 9.117l-26.114 0.008c-258.027 0.091-461.854 0.163-611.93-35.728-80.627-19.283-142.987-48.411-190.643-89.051-51.387-43.819-86.445-101.243-107.178-175.549-13.771-49.363-20.213-138.478 6.96-227.178 10.043-32.787 25.696-63.682 46.584-92.093-62.246-97.517-116.085-226.014-116.085-378.81 0-14.139 11.462-25.6 25.6-25.6s25.6 11.461 25.6 25.6c0 235.789 139.654 410.651 222.901 493.899 59.741 59.739 127.301 110.166 195.378 145.824 63.373 33.195 123.933 51.477 170.522 51.477 14.139 0 25.6 11.462 25.6 25.6s-11.461 25.6-25.6 25.6c-55.506 0-122.686-19.822-194.278-57.323-72.603-38.030-144.467-91.621-207.822-154.976-26.726-26.726-58.899-62.346-90.824-105.994-12.403 19.496-21.998 40.173-28.619 61.79-25.597 83.555-16.19 164.038-6.597 198.422 73.206 262.397 351.32 263.072 855.925 262.89-60.16-321.93-172.331-530.309-333.613-619.571-149.582-82.786-298.008-37.613-354.877-14.346-12.005 4.912-24.051 10.949-35.802 17.944-12.147 7.227-27.858 3.243-35.091-8.904-7.232-12.149-3.245-27.859 8.902-35.093 13.923-8.288 28.256-15.464 42.602-21.334 31.843-13.027 83.144-29.706 146.704-35.184 14.034-1.21 27.928-1.814 41.672-1.814 75.189 0 145.893 18.077 210.682 53.934 82.37 45.587 153.675 119.736 211.938 220.384 68.315 118.018 119.699 274.534 152.723 465.205 1.29 7.443-0.774 15.074-5.637 20.853z" data-tags="leaf, nature, green, plant" unicode=""/></font>
</defs>
</svg>
